Browse Collections Artists Sources   Search Dates

Add Show    List Management    Help


Grateful Dead 05/15/81
Athletic Center - Rutgers University, Piscataway, NJ
Comments Add Comment    Source Collectors    Add to Collection    Add to Want List    History
Source # 30113 Other Sources
Entered by dr.unclear
Checksums shn-md5 , st5
Disc Counts 2 / 3
Media Size
Date Circulated
Date Added
4/2005
07/20/2005
Source Summary MAC>DAT>CD. Recording by Kenny Mance. AKG CE-1 microphones > Uher CR-240 cassette deck, no dolby, TDK SA C90 cassettes. audience cassette master recorded by Kenny Mance. Transfer: MAC > Uher CR-240 > Sony PCM-M1(2/05). Sony PCM-R500 > HHB CDR830plus > EAC > Sound Forge 5.0 > CD Wave 1.71 > cd. *1/2 step patch source: (downloaded 4/2005 from tol- gd1981-05-15.senn.munder.9008) fob Senn 421>Cm>Dat>CD (0 to 6:48). a-d transfer 2/05, editing, tracking and shn conversion by Anne Cohen 4/05.  
  Archive
Source Information - Download Text | Download Zip
GRATEFUL DEAD - 5-15-81
Athletic Center, Rutgers University
New Brunswick, NJ


MAC>DAT>CD

AKG CE-1 microphones > Uher CR-240 cassette deck, no dolby, TDK SA C90 cassettes. audience cassette master recorded by Kenny Mance.

Transfer: MAC > Uher CR-240 > Sony PCM-M1(2/05). Sony PCM-R500 > HHB CDR830plus > EAC > Sound Forge 5.0 > CD Wave 1.71 > cd. *1/2 step patch source: (downloaded 4/2005 from tol- gd1981-05-15.senn.munder.9008) fob Senn 421>Cm>Dat>CD (0 to 6:48). a-d transfer 2/05, editing, tracking and shn conversion by Anne Cohen 4/05.  


Set One:
d1t01 - Mississippi Half Step Uptown-Toodeloo
d1t02 - Franklin's Tower >
d1t03 - New Minglewood Blues
d1t04 - Dire Wolf
d1t05 - Cassidy
d1t06 - Candyman >
d1t07 - Little Red Rooster
d1t08 - Jack-A-Roe
d1t09 - El Paso
d2t01 - Ramble On Rose >
d2t02 - Looks Like Rain >
d2t03 - Don't Ease Me In

Set Two:
d2t04 - Scarlet Begonias >
d2t05 - Fire On The Mountain >
d2t06 - Estimated Prophet >
d2t07 - Eyes Of The World >
d2t08 - Drums >
d3t01 - Space >
d3t02 - Not Fade Away >
d3t03 - Black Peter >
d3t04 - Sugar Magnolia

Encore
d3t05 - U.S. Blues

Notes:
- static d1t1 tuning
- Sound Forge 5.0 used for fades, gaps, first set tape flip splice, and patches:
1/2 step patch d1t1 (0 to 6:48), tuning and opening Scarlet d2t4 (1st min.) patch source: fob Senn 421>Cm>Dat>CD
- Thanks to Kenny Mance for making this tasty tape! (and to the patch source taper, too).  Enjoy the show!  : )  Anne


SHNTOOL LEN OUTPUT:

    length     expanded size    cdr  WAVE problems  fmt   ratio  filename
     9:16.17       98118428 B   ---   --   ---xx    shn  0.6187  gd1981-05-15manced1t01.shn
     9:49.58      104036060 B   ---   --   ---xx    shn  0.6689  gd1981-05-15manced1t02.shn
     7:30.31       79452956 B   ---   --   ---xx    shn  0.6142  gd1981-05-15manced1t03.shn
     3:27.72       36684188 B   ---   --   ---xx    shn  0.5993  gd1981-05-15manced1t04.shn
     7:22.11       77994716 B   ---   --   ---xx    shn  0.5802  gd1981-05-15manced1t05.shn
     6:57.16       73596476 B   ---   --   ---xx    shn  0.5675  gd1981-05-15manced1t06.shn
     9:17.20       98301884 B   ---   --   ---xx    shn  0.6028  gd1981-05-15manced1t07.shn
     5:05.33       53879660 B   ---   --   ---xx    shn  0.6043  gd1981-05-15manced1t08.shn
     5:26.06       57520556 B   ---   --   ---xx    shn  0.5765  gd1981-05-15manced1t09.shn
     8:02.10       85048364 B   ---   --   ---xx    shn  0.5916  gd1981-05-15manced2t01.shn
     8:34.59       90808412 B   ---   --   ---xx    shn  0.5802  gd1981-05-15manced2t02.shn
     3:17.64       34901372 B   ---   --   ---xx    shn  0.6430  gd1981-05-15manced2t03.shn
    12:05.09      127911212 B   ---   --   ---xx    shn  0.6100  gd1981-05-15manced2t04.shn
     8:25.39       89173772 B   ---   --   ---xx    shn  0.6083  gd1981-05-15manced2t05.shn
    12:43.14      134626172 B   ---   --   ---xx    shn  0.5832  gd1981-05-15manced2t06.shn
     8:28.50       89728844 B   ---   --   ---xx    shn  0.5912  gd1981-05-15manced2t07.shn
     5:22.13       56831420 B   ---   --   ---xx    shn  0.5529  gd1981-05-15manced2t08.shn
     6:13.72       65966588 B   ---   --   ---xx    shn  0.5302  gd1981-05-15manced3t01.shn
     6:58.11       73761116 B   ---   --   ---xx    shn  0.6030  gd1981-05-15manced3t02.shn
     8:54.59       94336412 B   ---   --   ---xx    shn  0.5335  gd1981-05-15manced3t03.shn
     9:06.43       96415580 B   ---   --   ---xx    shn  0.6493  gd1981-05-15manced3t04.shn
     5:09.23       54562444 B   -b-   --   ---xx    shn  0.6613  gd1981-05-15manced3t05.shn
   167:34.55     1773656632 B                            0.5989  (22 files)
Show Checksums
shn-md5
76543cbd9958caffe733b9aa51c8d020 *gd1981-05-15manced1t01.shn
8fc246c91320c29720db18ed7d8ae516 *gd1981-05-15manced1t02.shn
c48b67b6c6c4b357fd7549c033f0b3a6 *gd1981-05-15manced1t03.shn
354660fd5d47d19a53ead3dff5e98c00 *gd1981-05-15manced1t04.shn
1af2553a5fa7a6ad75f000dfa15818b0 *gd1981-05-15manced1t05.shn
83b197821d4eebabcd947fbf686d4fbf *gd1981-05-15manced1t06.shn
efeb59cc8694ebe900f15a7481cefd98 *gd1981-05-15manced1t07.shn
0c9a570a4c41ba25facd233733157b10 *gd1981-05-15manced1t08.shn
d4af340789970a9003532577ceb3e5aa *gd1981-05-15manced1t09.shn
fdd323a16a5b4c5960778408a28db82d *gd1981-05-15manced2t01.shn
39c73bd2f71121ef175a5cc614542a7d *gd1981-05-15manced2t02.shn
4443394b2c593185c646876a245ca072 *gd1981-05-15manced2t03.shn
1fecd1a87706f48c21a94ff383d5e67d *gd1981-05-15manced2t04.shn
c148c96962893775eb06ab9c32eca35a *gd1981-05-15manced2t05.shn
06be8eafa04d5214948beac9a499c9e8 *gd1981-05-15manced2t06.shn
40c0f3c20ea01f9fa573185477cd3eee *gd1981-05-15manced2t07.shn
e45cca84f7ee6b67894ac36bf4f2b355 *gd1981-05-15manced2t08.shn
aa7b99b41fc6c4bf432185e8fce3c15c *gd1981-05-15manced3t01.shn
ac56eec26ff7058a18ee6d0a84889f6b *gd1981-05-15manced3t02.shn
16c2c5fdb1effb371c0c42e43495ef3c *gd1981-05-15manced3t03.shn
0f3fa030d26a9016df2007fcb1d773ad *gd1981-05-15manced3t04.shn
ae43faa8d45210b5f2642d541f4cf5e5 *gd1981-05-15manced3t05.shn
st5
1fb2e00bb311c39d2e22f2fd63e9a1c5 [shntool] gd1981-05-15manced1t01.shn
75d23821ddbc55844c134d3912774165 [shntool] gd1981-05-15manced1t02.shn
8856da0b22f7470f3d8fba0b238495f5 [shntool] gd1981-05-15manced1t03.shn
1fc4040741edff6e31a8f1e0d2e2b4ce [shntool] gd1981-05-15manced1t04.shn
ed2b61c928756824ae1bf98ae9b6b7fa [shntool] gd1981-05-15manced1t05.shn
07f42d8888f913eaffcb8589c13f1f44 [shntool] gd1981-05-15manced1t06.shn
8046f34714faaf1c55ae9060aa5aa639 [shntool] gd1981-05-15manced1t07.shn
6b593a3975150048e3b9d4192501ebea [shntool] gd1981-05-15manced1t08.shn
932f6e4028592bc6f58f6a77aa8bf6d1 [shntool] gd1981-05-15manced1t09.shn
db154c5114f972209e5ababa1bb8c571 [shntool] gd1981-05-15manced2t01.shn
08237308b379250925d80782694f937e [shntool] gd1981-05-15manced2t02.shn
bcd6814ec833936564f775e99332224f [shntool] gd1981-05-15manced2t03.shn
ab1609043b1a351bc17ce94301fa6d76 [shntool] gd1981-05-15manced2t04.shn
875a45e3a119ec3b0d609c4ddd469587 [shntool] gd1981-05-15manced2t05.shn
b859fb7648b0a2695f37f5c90cbcde11 [shntool] gd1981-05-15manced2t06.shn
c898cddc5872c9e1d58f01f9acd43a12 [shntool] gd1981-05-15manced2t07.shn
a9c2f07989ca38ee722003065bb3096d [shntool] gd1981-05-15manced2t08.shn
3ca92964e0e4ffe3eabae1bf81321dbd [shntool] gd1981-05-15manced3t01.shn
862f4a55fdd8aa57b40f39f42450918e [shntool] gd1981-05-15manced3t02.shn
2071982524b5da0efe959e86693c8ce1 [shntool] gd1981-05-15manced3t03.shn
0083a3deb7e39d77b320374ab6d38d70 [shntool] gd1981-05-15manced3t04.shn
0f5e94da4243046806d85e4121b581e6 [shntool] gd1981-05-15manced3t05.shn

Comments
Add Comment
Other Sources (comments)
(FOB) Senn 421> Cm> Dat>... (0) flac16; Recording... (1) flac16; Recording... (0) flac16; 2 source... (0) flac16/48 Jim... (0) flac24/96 Jim... (0)
Date User Comment