Browse Collections Artists Sources   Search Dates

Add Show    List Management    Help


Grateful Dead 09/30/76
Mershon Auditorium, OSU, Columbus, OH
Comments Add Comment    Source Collectors    Add to Collection    Add to Want List    History
Source # 30225 Other Sources
Entered by dr.unclear
Checksums shn-md5 , st5
Disc Counts 1 / 2
Media Size
Date Circulated
Date Added
7/31/05
08/01/2005
Source Summary SBD>MR>DAT>CD; Disc 1&3; Disc 2 = SHNid=18107 
  Archive
Source Information - Download Text | Download Zip
9/30/76 - Grateful Dead
Mershon Auditorium
Ohio State University
Columbus, OH

Note: No Disc 2 tracks are inlcuded.  Charlie Miller's partial-show seed (http://db.etree.org/shninfo_detail.php?shnid=18107) can be used for that.  Since the soundboard material here also came from Gans (with the same lineage, but without Sonic Solutions editing), I did not bother duplicating his work.

Disc 1 & 3 lineage: SBD>MR>DAT>CD>EAC>SHN
Special thanks to Andy Lemieux for the source discs, and any other unnamed parties who may have contributed to this being available.

Disc 1
01 [06:22] The Music Never Stopped
02 [10:28] Sugaree
03 [04:58] New Minglewood Blues
04 [07:44] Ramble On Rose
05 [06:29] Looks Like Rain
06 [09:12] Peggy-O
07 [04:23] El Paso

Disc 1 Edits:
1. First 6 seconds of D1T01 patched with audience source.
2. Weir's vocals bleed at 0:22 into D1T01; reduced levels 3dB.
3. Patched 1-second dropout in mix at 5:47 of D1T01.
4. First 3 seconds of D1T04 patched with audience source.
5. First 35 seconds of D1T06 patched with audeince source.

Disc 3
01 [00:46] tuning
02 [04:39] St. Stephen >
03 [06:00] Jam >
04 [08:32] Not Fade Away >
05 [05:07] Drums >
06 [10:39] Wharf Rat >
07 [03:45] Not Fade Away >
08 [00:59] St. Stephen >
09 [08:05] Around and Around
10 [14:36] Morning Dew

Disc 3 Edits:
1. The left channel levels drop significantly from 2:28 of D3T02 to 5:50 of D3T03.  I did not edit this in any way.
2. 2 minutes patched with audience source from 3:35 of D3T05 to 0:29 of D3T06.
3. Last 4:56 of D3T10, starting at 9:40, patched with audience source.

Sean Cribbs 7/2005

shntool output:
    length     expanded size   cdr  WAVE problems filename
     6:22.28       67450700    ---   --   -----   gd1976-09-30d1t01.wav
    10:28.29      110847452    ---   --   -----   gd1976-09-30d1t02.wav
     4:58.73       52738940    ---   --   -----   gd1976-09-30d1t03.wav
     7:44.29       81917852    ---   --   -----   gd1976-09-30d1t04.wav
     6:29.35       68701964    ---   --   -----   gd1976-09-30d1t05.wav
     9:12.13       97403420    ---   --   -----   gd1976-09-30d1t06.wav
     4:23.66       46548476    ---   --   -----   gd1976-09-30d1t07.wav
     0:46.13        8145020    ---   --   -----   gd1976-09-30d3t01.wav
     4:39.36       49300316    ---   --   -----   gd1976-09-30d3t02.wav
     6:00.34       63584012    ---   --   -----   gd1976-09-30d3t03.wav
     8:32.16       90354476    ---   --   -----   gd1976-09-30d3t04.wav
     5:07.05       54166604    ---   --   -----   gd1976-09-30d3t05.wav
    10:39.48      112832540    ---   --   -----   gd1976-09-30d3t06.wav
     3:45.36       39774716    ---   --   -----   gd1976-09-30d3t07.wav
     0:59.34       10487612    ---   --   -----   gd1976-09-30d3t08.wav
     8:05.04       85563452    ---   --   -----   gd1976-09-30d3t09.wav
    14:36.44      154629932    ---   --   -----   gd1976-09-30d3t10.wav
   112:51.18     1194447484 B                     (totals for 17 files)
Show Checksums
shn-md5
87d9b87d1463981dd263dc1be978a49c *gd1976-09-30d1t01.shn
9f73e901bf103dae818cb01418c4120a *gd1976-09-30d1t02.shn
e2ba853bbecbdf41ba2ebf217df9bd7e *gd1976-09-30d1t03.shn
a82d5f92d3d8514d15518c349a422aeb *gd1976-09-30d1t04.shn
356ecd4d6219225187691f5f595b23ee *gd1976-09-30d1t05.shn
60ec74dab944b82fc1443c8a83e2dbea *gd1976-09-30d1t06.shn
7eddadea0da71b425a421c452aa4b3bf *gd1976-09-30d1t07.shn
f35491614d9714e9f99c1900ba13da6f *gd1976-09-30d3t01.shn
3b75555965140eb4edb69ac7382bf91e *gd1976-09-30d3t02.shn
2110a7bf175d6ff51af7636d0739219d *gd1976-09-30d3t03.shn
784c78eab424896ceff4710f606d2bab *gd1976-09-30d3t04.shn
4a617d1b99ed750e201e06489bf694a6 *gd1976-09-30d3t05.shn
00a24c008a5ba199e366d8b9b8dc5845 *gd1976-09-30d3t06.shn
457662877ace50e996670d9cce55b4dd *gd1976-09-30d3t07.shn
e8eaa6b382663d8ea02ee4d68fad532d *gd1976-09-30d3t08.shn
37ad0e91ed7cdb68c25496502fbb9454 *gd1976-09-30d3t09.shn
b38359df859c0296acb510f6cfe6e5e7 *gd1976-09-30d3t10.shn
st5
d3ddc79ee9613ec3505026090c56142f [shntool] gd1976-09-30d1t01.shn
e73f01a18a878cba3b02f9ca112e5edd [shntool] gd1976-09-30d1t02.shn
2a9998852e4e28cd146a2d63016a7d7a [shntool] gd1976-09-30d1t03.shn
38cf237d0f9e2081231fb25265e7b775 [shntool] gd1976-09-30d1t04.shn
c03af6b138922c4ee9f7f9416ed81379 [shntool] gd1976-09-30d1t05.shn
b45227eb6b5eaee7bec2374b65932db1 [shntool] gd1976-09-30d1t06.shn
f4e02d9963f93829a3e7f1f2ab9dc83b [shntool] gd1976-09-30d1t07.shn
66a976a1eb432d9ec7578cba0d077503 [shntool] gd1976-09-30d3t01.shn
8d85139cbcddedfa8b0ee2c097edefa9 [shntool] gd1976-09-30d3t02.shn
37b4d932c54a99ce2702297e98d3d482 [shntool] gd1976-09-30d3t03.shn
767f00525da672a10be93946ad4215da [shntool] gd1976-09-30d3t04.shn
ddda6ae872d9f1228b0cece06d4d01df [shntool] gd1976-09-30d3t05.shn
8b0802bd3751325468fa43af2f0e6281 [shntool] gd1976-09-30d3t06.shn
084ab1b6e4e3b192d60607fb2f7b1b3c [shntool] gd1976-09-30d3t07.shn
0a9b3788468ecbdf8080e19d934c380a [shntool] gd1976-09-30d3t08.shn
23077b8755fd86150aca42af32a2cd22 [shntool] gd1976-09-30d3t09.shn
1754887f516c7edd06902f601c6612ab [shntool] gd1976-09-30d3t10.shn

Comments
Add Comment
Other Sources (comments)
FOB - AUD master cass >... (2) Partial Set 1,2... (6) flac16; 3 Source... (0)
Date User Comment