Browse Collections Artists Sources   Search Dates

Add Show    List Management    Help


Blues Traveler 08/21/05
The Gateway Arch (Riverfront), St. Louis, MO
Comments Add Comment    Source Collectors    Add to Collection    Add to Want List    History
Source # 30595 Other Sources
Entered by Dave M [db.etree admin]
Checksums ffp
Disc Counts 1 / 2
Media Size
Date Circulated
Date Added
08/22/2005
08/23/2005
Source Summary Master: B&K 4022s > EAA PSP2 > SD 722 (24/96)
by Steve Brothers and Brian Sax
Conversion: Peak 4: normalization; dithered with pow-r 3
by Brian Sax 
  Archive
Source Information - Download Text | Download Zip
Blues Traveler
08/21/2005
The Arch Riverfront
St. Louis, MO

Recordists: Steve Brothers and Brian Sax
Source: B&K 4022s > EAA PSP2 > SD 722 (24/96)
Location: FOBDFC / ORTF / 8.5' high / 25' from stage
Mastering: Peak 4: normalization; dithered with pow-r 3

Set:
01: Intro
02: jam >
03: Save His Soul >
04: Run Around
05: Amber Awaits >
06: Freedom
07: Nail >
08: NY Prophesie
09: Can?t Win True Love >
10: But Anyway >
11: guitar solo >
12: Carolina Blues
13: Thinnest of Air
14: Dropping Some NYC > Crash Burn > Dropping Some NYC >
15: Hook
16: encore break
17: The Devil Went Down to Georgia

SHNTool Output:
    length     expanded size   cdr  WAVE problems filename
     0:50.49        8935292    ---   --   ---xx   bt2005-08-21d1t01.flac
     1:24.10       14841164    ---   --   ---xx   bt2005-08-21d1t02.flac
     5:28.68       58019180    ---   --   ---xx   bt2005-08-21d1t03.flac
     5:21.58       56760860    ---   --   ---xx   bt2005-08-21d1t04.flac
     5:49.73       61735340    ---   --   ---xx   bt2005-08-21d1t05.flac
     4:14.02       44810348    ---   --   ---xx   bt2005-08-21d1t06.flac
     4:30.56       47759756    ---   --   ---xx   bt2005-08-21d1t07.flac
     7:49.00       82731644    ---   --   ---xx   bt2005-08-21d1t08.flac
     5:40.00       59976044    ---   --   ---xx   bt2005-08-21d1t09.flac
     5:42.62       60474668    ---   --   ---xx   bt2005-08-21d1t10.flac
     1:54.06       20123756    ---   --   ---xx   bt2005-08-21d1t11.flac
     6:52.46       72785036    ---   --   ---xx   bt2005-08-21d1t12.flac
     3:19.64       35254172    ---   --   ---xx   bt2005-08-21d1t13.flac
     7:11.69       76190732    ---   --   ---xx   bt2005-08-21d1t14.flac
     4:15.49       45097292    ---   --   ---xx   bt2005-08-21d1t15.flac
     3:14.56       34353356    ---   --   ---xx   bt2005-08-21d1t16.flac
     3:59.40       42253724    ---   --   ---xx   bt2005-08-21d1t17.flac
    77:40.33      822102364 B                    
(totals for 17 files, 0.5537 overall compression ratio)


Show Checksums
ffp
bt2005-08-21d1t01.flac:976e25bcbfe0dddb13abf7d23581e930
bt2005-08-21d1t02.flac:7f6a80612a6fb2d22d09fe2584855836
bt2005-08-21d1t03.flac:8a131d7a75a08d040cee08ce355832fb
bt2005-08-21d1t04.flac:0c79467e52f442be50fc43082dc64d92
bt2005-08-21d1t05.flac:710718f63c0710ac0a96d77c97b44ec4
bt2005-08-21d1t06.flac:acefd6da1f0ab2a7632e3e08043b6ddc
bt2005-08-21d1t07.flac:e6e43c02b1f87c67310c5c53b038fd61
bt2005-08-21d1t08.flac:1bc605ef6bf07933effa97375a238e75
bt2005-08-21d1t09.flac:b3e23d37e181beb7d11b7137459f60c1
bt2005-08-21d1t10.flac:50963e7e7431e1c905adb92733f65e70
bt2005-08-21d1t11.flac:96c80066ccae8eda05dc151c5c7f3ae4
bt2005-08-21d1t12.flac:c53976d6e592091341e0edbbea5f57e0
bt2005-08-21d1t13.flac:2f7eb920e42d30ace5c0fc0f3bffdc17
bt2005-08-21d1t14.flac:43f5b3d66c6d5d703d9fb9889e831f7d
bt2005-08-21d1t15.flac:3a2105b9afcd3ac4223b088592edf9b9
bt2005-08-21d1t16.flac:fa10f548bfa6de13c8fadef4e9a0cb7c
bt2005-08-21d1t17.flac:4a6482413971f90cec813ea779ce02c2

Comments
Add Comment
Date User Comment