Browse Collections Artists Sources   Search Dates

Add Show    List Management    Help


Grateful Dead 10/12/83
Madison Square Garden, New York, NY
Comments Add Comment    Source Collectors    Add to Collection    Add to Want List    History
Source # 30827 Other Sources
Entered by Matt Vernon
Checksums flac-md5 , ffp
Disc Counts 2 / 3
Media Size
Date Circulated
Date Added
09/09/2005
09/13/2005
Source Summary flac16; Source: FOB > 1 Neumann U87 + 2 Sennheiser 421's > Nak 550 (Master Cassette) > Dat Transfer: Fostex D5 > Vx Pocket 440 > Toshiba 3480ct > Wavelab 4.0 > Fades + Resampled to 44.1 > Cd Wave > Flac Transferred/Seeded By: Greg Lance 
  Archive
Source Information - Download Text | Download Zip
Grateful Dead
Date: 10.12.83
Madison Square Garden
New York, Ny

Source:
FOB > 1 Neumann U87 + 2 Sennheiser 421's > Nak 550 (Master Cassette) > Dat

Transfer:
Fostex D5 > Vx Pocket 440 > Toshiba 3480ct > Wavelab 4.0 > Fades + Resampled to 44.1 > Cd Wave > Flac

Transferred/Seeded By: Greg Lance [email protected]

Disc I/Set I
01. Cold Rain & Snow
02. New Minglewood Blues
03. Ramble On Rose
04. My Brother Esau
05. It Must Have Been The Roses
06. Cassidy ->
07. Cumberland Blues
08. Looks Like Rain ->
09. Might As Well

Disc II/Set IIa
01. Help On The Way ->
02. Slipknot
03. Franklin's Tower
04. Man Smart, Women Smarter
05. He's Gone ->
06. Drumz ->
07. Space ->

Disc III/Set IIb
01. Truckin' ->
02. Black Peter ->
03. Not Fade Away
-Encore-
04. Revolution

notes

- Tape Flips After Roses, Frankin's & Drumz.

    length     expanded size   cdr  WAVE problems filename
     8:42.44       92184332    ---   --   ---xx   GD1983-10-12d1t01.flac
    12:24.74      131415692    ---   --   ---xx   GD1983-10-12d1t02.flac
     9:00.12       95284268    ---   --   ---xx   GD1983-10-12d1t03.flac
     5:37.51       59566796    ---   --   ---xx   GD1983-10-12d1t04.flac
     6:55.22       73257788    ---   --   ---xx   GD1983-10-12d1t05.flac
     6:08.06       64929356    ---   --   ---xx   GD1983-10-12d1t06.flac
    10:21.13      109575020    ---   --   ---xx   GD1983-10-12d1t07.flac
     8:35.44       90949532    ---   --   ---xx   GD1983-10-12d1t08.flac
     4:36.18       48729092    -b-   --   ---xx   GD1983-10-12d1t09.flac
     4:17.29       45403052    ---   --   ---xx   GD1983-10-12d2t01.flac
    10:18.69      109177532    ---   --   ---xx   GD1983-10-12d2t02.flac
    15:16.44      161685932    ---   --   ---xx   GD1983-10-12d2t03.flac
     8:28.45       89717084    ---   --   ---xx   GD1983-10-12d2t04.flac
    12:49.44      135755132    ---   --   ---xx   GD1983-10-12d2t05.flac
     6:54.03       73036700    ---   --   ---xx   GD1983-10-12d2t06.flac
    11:01.53      116725108    -b-   --   ---xx   GD1983-10-12d2t07.flac
     9:53.49      104720492    ---   --   ---xx   GD1983-10-12d3t01.flac
     9:13.38       97638620    ---   --   ---xx   GD1983-10-12d3t02.flac
    10:08.28      107317100    ---   --   ---xx   GD1983-10-12d3t03.flac
     5:21.13       56655772    -b-   --   ---xx   GD1983-10-12d3t04.flac
   176:05.24     1863724400 B                     (totals for 20 files, 0.6232 overall compression ratio)


Show Checksums
flac-md5
a0db9c6720fe26a5feaa38a147f17d4e *GD1983-10-12d1t01.flac
0bacbf7616961a57c9ef48db932e38d8 *GD1983-10-12d1t02.flac
fce25b64bda04217c71d89f137a41b2e *GD1983-10-12d1t03.flac
7151b13f88b9ee126b66bad8079a8b2f *GD1983-10-12d1t04.flac
97188a3bc061fef87dbd762a0db2adf8 *GD1983-10-12d1t05.flac
fc156ef6f9dbd0c0eb6f7d0a5239ee75 *GD1983-10-12d1t06.flac
d54136af8b91789b3804f0c61b7df41c *GD1983-10-12d1t07.flac
3b8b0a89efc19a6b3223e5c438a60d42 *GD1983-10-12d1t08.flac
fc0941ff3b430603cd044d282ce8257f *GD1983-10-12d1t09.flac
5132384eacaeb46437a01974e4a9b00d *GD1983-10-12d2t01.flac
768a28fd07977d4b53931feaf2e0b818 *GD1983-10-12d2t02.flac
20d4f03c8f2e7ef592f035f3b5e073c6 *GD1983-10-12d2t03.flac
a3425dfff8eb8922f47108147abc7bc7 *GD1983-10-12d2t04.flac
3fd420796118cf12e457207dc3ac5e05 *GD1983-10-12d2t05.flac
e9e49a8ede18f7fd1d502d636608cdbb *GD1983-10-12d2t06.flac
2d24523d2ac8a00e361fa49bde62b190 *GD1983-10-12d2t07.flac
698529ca86bbfb9299c3bc84e0f29d02 *GD1983-10-12d3t01.flac
e119fcc28ac818f1b27f57166ddf1907 *GD1983-10-12d3t02.flac
9171f17d8874b067057a1d78f9de31b6 *GD1983-10-12d3t03.flac
7a57677efef579993eca72dfd08af58a *GD1983-10-12d3t04.flac
ffp
GD1983-10-12d1t01.flac:25828c914df234c5e13e730cf196a5ad
GD1983-10-12d1t02.flac:26457f6d84fd30cb170c0c5b3a32eb66
GD1983-10-12d1t03.flac:e11ed322475bc1e9e42e8be0c1545c18
GD1983-10-12d1t04.flac:8281c1dd646831a533ad5260507a4d05
GD1983-10-12d1t05.flac:6e4b49b417651a6d989b733c21744c3e
GD1983-10-12d1t06.flac:2098fc26c8f9f463061389732dfbf1dc
GD1983-10-12d1t07.flac:53335477776b3322bd689585e6c555f3
GD1983-10-12d1t08.flac:ce31ad10f575d00e307aa51736f4238f
GD1983-10-12d1t09.flac:b23f676f23f5e3eea92d2a6616cd0670
GD1983-10-12d2t01.flac:6f945704a7a98ac34ee9ca95f2876717
GD1983-10-12d2t02.flac:3d3f629facac8d8e6a273f852bc08087
GD1983-10-12d2t03.flac:549415bddd3bdba2f54396d9ffa1f3d4
GD1983-10-12d2t04.flac:826fde889f77902d2ef577244b648f21
GD1983-10-12d2t05.flac:9cf4e1d34d7c6dc41aab446345727490
GD1983-10-12d2t06.flac:766ab921c7b683fd203a5370c8baca90
GD1983-10-12d2t07.flac:10fd9eba10918dd65c88be86358f9544
GD1983-10-12d3t01.flac:80011b5d4f251e342563801ab58037b2
GD1983-10-12d3t02.flac:68a9dbf3362fc6ee0f6bcf68d89c0a51
GD1983-10-12d3t03.flac:3d71a411da8d5cb9f7750ab352fae074
GD1983-10-12d3t04.flac:f3d4cd303c489926f510ef198f8fc36a

Comments
Add Comment
Other Sources (comments)
unknown aud (could be FOB... (2) SBD > Cassette Master > Dat... (0) flac16; Sennheiser... (0) flac16; Recording... (0) flac16; SBD and... (0) 2 Beyer M160>Sony TCD5M... (0) flac16; Lineage:... (0) flac16; Source: 2... (0) flac24; Updated... (0) flac16; 2 Source... (0) flac24; Master... (0) flac16; Master... (0) flac24; Updated... (2) flac16; Updated... (2) flac24; Partial Show... (0) flac16; Partial Show... (0)
Date User Comment