Browse Collections Artists Sources   Search Dates

Add Show    List Management    Help


Drive-By Truckers 12/11/04
Visulite Theatre, Charlotte, NC
Comments Add Comment    Source Collectors    Add to Collection    Add to Want List    History
Source # 30914 Other Sources
Entered by Kyle pike
Checksums d1
Disc Counts 0 / 0
Media Size
Date Circulated
Date Added

09/23/2005
Source Summary AKG 481 > V3 (Gordon Wilson) 
Source Information - Download Text | Download Zip
Drive By Truckers
The Visulite Theater
Charlotte NC
12/11/04


source:  AKG 481 (ortf) > V3 > DAP1 @ 44.1
location: FOB 2'LOC on the drink rail about 20' from the stage
transfer: da-20 mkII > audiophile 24/96 > soundforge 6.0 > cd wave > flac frontend (level 8)

taped and transfered by Gordon Wilson,  gordon AT taperssection.com


disc one:

1. Tornadoes
2. Lookout Mountain
3. Where The Devil Don't Stay
4. The Day John Henry Died
5. Puttin' People On the Moon
6. Sounds Better In A Song
7. Marry Me
8. I Know Your Daddy Hates Me
9. Never Gonna Change
10. Outfit
11. Three Alabama Icons
12. Wallace
13. Guitarman Upstairs
14. Buttholeville

disc two:

Encore:
1. Crowd
2. Grandaddy
3. The Living Bubba
4. Danko/Manuel
5. Tales Facing Up
6. One Of These Days
7. Let Me Roll It
8. Mrs. Claus' Kimono
9. Zip City
10. Let There Be Rock


notes:
-  thanks to Tony for the clamp space
-  fades added at beginning and end of disc with soundforge 6.0
-  two very small pops in Danko
-  sector boundary's confirmed with shntool v2.0.3

dbt2004-12-11d1t01.flac:f5ebf3904d0a15c9544c7fcb1fce7cda
dbt2004-12-11d1t02.flac:1dbed9d7f1bd6a9919ab70c96be3a7bd
dbt2004-12-11d1t03.flac:e466326130dd415bc4adb8c9a0d72d2f
dbt2004-12-11d1t04.flac:2ddfebe406090d49bba41a6ea2048565
dbt2004-12-11d1t05.flac:cd3825afc9392cd9716c1e9a3f3bac71
dbt2004-12-11d1t06.flac:44ee78aa32580622251c205fb8225b7c
dbt2004-12-11d1t07.flac:7176408cc98e3578d26e8a693c003606
dbt2004-12-11d1t08.flac:f3872e5dc97729f499781849e49d3cab
dbt2004-12-11d1t09.flac:e1e1c7c51d3841b5e2f7f33d05b70fb4
dbt2004-12-11d1t10.flac:f36f396f4c8cf90958730e0ca6850aea
dbt2004-12-11d1t11.flac:28198a04bff782d881d48897609e73e6
dbt2004-12-11d1t12.flac:37f927624c119dced2d081becc20fba8
dbt2004-12-11d1t13.flac:9c0cced085ab7ff5a5c9388f93c82a36
dbt2004-12-11d1t14.flac:1cd3effd22ad7947d257e36bdb336c79
dbt2004-12-11d2t01.flac:f5a2f06107ce297154d1bf840710a463
dbt2004-12-11d2t02.flac:398de178b2eb0fcdc0287b78613d5e93
dbt2004-12-11d2t03.flac:debc8cd4511582b1dd6bad17a322723f
dbt2004-12-11d2t04.flac:3c29cf050993f724bf676ad6c4c64238
dbt2004-12-11d2t05.flac:48b39b3f0c13a3d854f6477c09cfd8c3
dbt2004-12-11d2t06.flac:d45b06b282186a2e294569b69708e17a
dbt2004-12-11d2t07.flac:0573301b4904625d5e3c66e717cd059b
dbt2004-12-11d2t08.flac:ff0c4f597bb803ff7eb37e999716fad2
dbt2004-12-11d2t09.flac:c158c719204de9ca2ba0efd60868fa32
dbt2004-12-11d2t10.flac:a23ae60cca4edd15b469b396e4bedfbe



    length     expanded size   cdr  WAVE problems filename
     5:21.50       56742044    ---   --   ---xx   dbt2004-12-11d1t01.flac
     5:01.38       53185820    ---   --   ---xx   dbt2004-12-11d1t02.flac
     5:43.64       60655772    ---   --   ---xx   dbt2004-12-11d1t03.flac
     3:59.38       42249020    ---   --   ---xx   dbt2004-12-11d1t04.flac
     5:24.28       57219500    ---   --   ---xx   dbt2004-12-11d1t05.flac
     5:10.53       54808700    ---   --   ---xx   dbt2004-12-11d1t06.flac
     5:49.41       61660076    ---   --   ---xx   dbt2004-12-11d1t07.flac
     7:07.49       75438092    ---   --   ---xx   dbt2004-12-11d1t08.flac
     6:08.63       65063420    ---   --   ---xx   dbt2004-12-11d1t09.flac
     4:31.22       47856188    ---   --   ---xx   dbt2004-12-11d1t10.flac
     7:19.05       77451404    ---   --   ---xx   dbt2004-12-11d1t11.flac
     5:06.40       54072524    ---   --   ---xx   dbt2004-12-11d1t12.flac
     3:50.21       40621436    ---   --   ---xx   dbt2004-12-11d1t13.flac
     9:16.38       98167820    ---   --   ---xx   dbt2004-12-11d1t14.flac
     3:19.58       35240060    ---   --   ---xx   dbt2004-12-11d2t01.flac
     4:45.66       50429276    ---   --   ---xx   dbt2004-12-11d2t02.flac
     6:54.59       73168412    ---   --   ---xx   dbt2004-12-11d2t03.flac
     6:12.72       65790188    ---   --   ---xx   dbt2004-12-11d2t04.flac
     5:31.47       58498988    ---   --   ---xx   dbt2004-12-11d2t05.flac
     5:19.02       56276348    ---   --   ---xx   dbt2004-12-11d2t06.flac
     5:39.14       59832572    ---   --   ---xx   dbt2004-12-11d2t07.flac
     5:52.71       62259836    ---   --   ---xx   dbt2004-12-11d2t08.flac
     5:22.18       56843180    ---   --   ---xx   dbt2004-12-11d2t09.flac
     8:48.71       93306236    ---   --   ---xx   dbt2004-12-11d2t10.flac
   137:38.53        1389.35 MB                    (totals for 24 files, 0.5452 overall compression ratio)
Show Checksums
d1
dbt2004-12-11d1t01.flac:f5ebf3904d0a15c9544c7fcb1fce7cda
dbt2004-12-11d1t02.flac:1dbed9d7f1bd6a9919ab70c96be3a7bd
dbt2004-12-11d1t03.flac:e466326130dd415bc4adb8c9a0d72d2f
dbt2004-12-11d1t04.flac:2ddfebe406090d49bba41a6ea2048565
dbt2004-12-11d1t05.flac:cd3825afc9392cd9716c1e9a3f3bac71
dbt2004-12-11d1t06.flac:44ee78aa32580622251c205fb8225b7c
dbt2004-12-11d1t07.flac:7176408cc98e3578d26e8a693c003606
dbt2004-12-11d1t08.flac:f3872e5dc97729f499781849e49d3cab
dbt2004-12-11d1t09.flac:e1e1c7c51d3841b5e2f7f33d05b70fb4
dbt2004-12-11d1t10.flac:f36f396f4c8cf90958730e0ca6850aea
dbt2004-12-11d1t11.flac:28198a04bff782d881d48897609e73e6
dbt2004-12-11d1t12.flac:37f927624c119dced2d081becc20fba8
dbt2004-12-11d1t13.flac:9c0cced085ab7ff5a5c9388f93c82a36
dbt2004-12-11d1t14.flac:1cd3effd22ad7947d257e36bdb336c79
dbt2004-12-11d2t01.flac:f5a2f06107ce297154d1bf840710a463
dbt2004-12-11d2t02.flac:398de178b2eb0fcdc0287b78613d5e93
dbt2004-12-11d2t03.flac:debc8cd4511582b1dd6bad17a322723f
dbt2004-12-11d2t04.flac:3c29cf050993f724bf676ad6c4c64238
dbt2004-12-11d2t05.flac:48b39b3f0c13a3d854f6477c09cfd8c3
dbt2004-12-11d2t06.flac:d45b06b282186a2e294569b69708e17a
dbt2004-12-11d2t07.flac:0573301b4904625d5e3c66e717cd059b
dbt2004-12-11d2t08.flac:ff0c4f597bb803ff7eb37e999716fad2
dbt2004-12-11d2t09.flac:c158c719204de9ca2ba0efd60868fa32
dbt2004-12-11d2t10.flac:a23ae60cca4edd15b469b396e4bedfbe

Comments
Add Comment
Other Sources (comments)
AKG C2000s > MP2 + SBD >... (0)
Date User Comment