Browse Collections Artists Sources   Search Dates

Add Show    List Management    Help


Drive-By Truckers 11/18/04
The Orange Peel, Asheville, NC
Comments Add Comment    Source Collectors    Add to Collection    Add to Want List    History
Source # 30916 Other Sources
Entered by Kyle pike
Checksums d1
Disc Counts 0 / 0
Media Size
Date Circulated
Date Added

09/23/2005
Source Summary AKG 483 > V3 > D8 (Gordon Wilson) 
Source Information - Download Text | Download Zip
Drive By Truckers
11-18-04
The Orange Peel
Asheville,NC

source:  (DFC,DINa) AKG 483 > V3 > D8 @44.1
transfer:  dap1 > audiophile 24/96 > soundforge 6.0 > cdwave > flac frontend (level 8)

taped and transfer by gordon wilson
[email protected] dot com

disc one:

1. Intro/house music (Fat Bottom Girls)
2. Tornadoes
3. The Buford Stick
4. Carl Perkins' Cadillac
5. Sink Hole
6. Decoration Day
7. The Day John Henry Died
8. Puttin' People on the Moon
9. Women Without Whiskey
10. Daddy's Cup
11. The Company I Keep
12. Never Gonna Change
13. Goddamn Lonely Love
14. Bulldozers and Dirt

disc two:

1. Love Like This
2. Tuning/The Living Bubba intro
3. The Living Bubba
4. Marry Me
5. Careless
6. Lookout Mountain
7. Crowd

disc three:

Encore 1
1. Intro
2. Granddaddy
3. Troglodyte
4. Where The Devil Don't Stay
5. Outfit
6. The Three Alabama Icons
7. Wallace
8. Let There Be Rock

encore 2
9. Buttholeville
10.Keep On Smilin'*

notes:
- big thanks to cliff for the D8
- fades added at the beginning and end of disc with soundforge 6.0
- sector boundary's confirmed with shntool v2.0.3
- *dedicated to Doug Riley (one of my boss's and a friend of the bands)

flac fingerprint:
DBT2004-11-18d1t01.flac:1486287380ed1c4978914a87420ac79a
DBT2004-11-18d1t02.flac:c34df9e6781faddf0d14064c2690b304
DBT2004-11-18d1t03.flac:97d964015474dca21e183cc08d6a8452
DBT2004-11-18d1t04.flac:3774e501133f75cc22afc09a51f2936e
DBT2004-11-18d1t05.flac:8520d939a5069eaacc9f0981047a91b9
DBT2004-11-18d1t06.flac:997fa3ff75e465bcaf9b02954da8de67
DBT2004-11-18d1t07.flac:dbb605bcf80a6a6279f5da071637494a
DBT2004-11-18d1t08.flac:4bbc61b079449e557714117e4fa60135
DBT2004-11-18d1t09.flac:dcde19bf6ea4df43b10c9f5673d9f7b7
DBT2004-11-18d1t10.flac:7c9057844ab14c9aff4e436ee49aa138
DBT2004-11-18d1t11.flac:33669f44e1b8633291dc4fa049723364
DBT2004-11-18d1t12.flac:ed83d550f99680ff435dbd81e94b4957
DBT2004-11-18d1t13.flac:8304193578dcdcb9e7287d6f94cfd6b5
DBT2004-11-18d1t14.flac:a2616138869b3c63ed352a12113b29d6
DBT2004-11-18d2t01.flac:e4676ca5e9ae08b376b77dc6b6c7ac93
DBT2004-11-18d2t02.flac:59ca7c7507726c56fa18539f954815fa
DBT2004-11-18d2t03.flac:9d4b05fa91bda9c41c073ddb752a5855
DBT2004-11-18d2t04.flac:20d8f212e656212497c17ab794e23861
DBT2004-11-18d2t05.flac:ff0163033d86a65bbb9450b962932409
DBT2004-11-18d2t06.flac:aea841ffc810cd72e23cbc446e523e03
DBT2004-11-18d2t07.flac:1907df8dd2e0b493a32bdda50c6518d8
DBT2004-11-18d3t01.flac:1c510dabe864457841e3aaf8e7bf304e
DBT2004-11-18d3t02.flac:3e982539e115ab61ed8e2becd74d2a18
DBT2004-11-18d3t03.flac:3142013d5a7added3c6c6f01ee7e9b26
DBT2004-11-18d3t04.flac:7fac4bfd48f36ab3aa4ff527282e73db
DBT2004-11-18d3t05.flac:8065051053fec3562976bac503d95156
DBT2004-11-18d3t06.flac:c139bc17fbb5f0c093ac9bd696c549bd
DBT2004-11-18d3t07.flac:3fb468b7a279774355437440acfa808e
DBT2004-11-18d3t08.flac:7f792a0cd007f080239c511bd243c294
DBT2004-11-18d3t09.flac:efd09b6c50614cefd8b582e9430d6e77
DBT2004-11-18d3t10.flac:690d9aa997af6788b77f179e85bb1ec6

shntool output:
    length     expanded size   cdr  WAVE problems filename
     3:59.23       42213740    ---   --   ---xx   DBT2004-11-18d1t01.flac
     6:06.36       64647116    ---   --   ---xx   DBT2004-11-18d1t02.flac
     4:44.01       50099996    ---   --   ---xx   DBT2004-11-18d1t03.flac
     5:31.33       58466060    ---   --   ---xx   DBT2004-11-18d1t04.flac
     3:49.44       40499132    ---   --   ---xx   DBT2004-11-18d1t05.flac
     6:53.10       72876764    ---   --   ---xx   DBT2004-11-18d1t06.flac
     3:59.43       42260780    ---   --   ---xx   DBT2004-11-18d1t07.flac
     5:18.04       56104652    ---   --   ---xx   DBT2004-11-18d1t08.flac
     4:22.01       46219196    ---   --   ---xx   DBT2004-11-18d1t09.flac
     6:16.07       66342908    ---   --   ---xx   DBT2004-11-18d1t10.flac
     8:31.23       90194540    ---   --   ---xx   DBT2004-11-18d1t11.flac
     6:02.37       63943868    ---   --   ---xx   DBT2004-11-18d1t12.flac
     8:19.48       88136540    ---   --   ---xx   DBT2004-11-18d1t13.flac
     5:27.41       57779276    ---   --   ---xx   DBT2004-11-18d1t14.flac
     7:07.05       75334604    ---   --   ---xx   DBT2004-11-18d2t01.flac
     2:54.07       30710108    ---   --   ---xx   DBT2004-11-18d2t02.flac
     6:51.21       72549836    ---   --   ---xx   DBT2004-11-18d2t03.flac
     5:50.68       61899980    ---   --   ---xx   DBT2004-11-18d2t04.flac
     2:06.65       22379324    ---   --   ---xx   DBT2004-11-18d2t05.flac
     5:02.36       53357516    ---   --   ---xx   DBT2004-11-18d2t06.flac
     2:10.51       23051996    ---   --   ---xx   DBT2004-11-18d2t07.flac
     3:12.54       33995852    ---   --   ---xx   DBT2004-11-18d3t01.flac
     3:12.60       34009964    ---   --   ---xx   DBT2004-11-18d3t02.flac
     3:55.13       41484620    ---   --   ---xx   DBT2004-11-18d3t03.flac
     5:54.58       62582060    ---   --   ---xx   DBT2004-11-18d3t04.flac
     4:33.52       48279548    ---   --   ---xx   DBT2004-11-18d3t05.flac
     5:33.45       58847084    ---   --   ---xx   DBT2004-11-18d3t06.flac
     4:16.58       45294860    ---   --   ---xx   DBT2004-11-18d3t07.flac
     9:03.21       95834636    ---   --   ---xx   DBT2004-11-18d3t08.flac
     9:13.34       97629212    ---   --   ---xx   DBT2004-11-18d3t09.flac
     4:21.39       46132172    ---   --   ---xx   DBT2004-11-18d3t10.flac
   164:41.63        1662.40 MB                    (totals for 31 files, 0.5465 overall compression ratio)
Show Checksums
d1
DBT2004-11-18d1t01.flac:1486287380ed1c4978914a87420ac79a
DBT2004-11-18d1t02.flac:c34df9e6781faddf0d14064c2690b304
DBT2004-11-18d1t03.flac:97d964015474dca21e183cc08d6a8452
DBT2004-11-18d1t04.flac:3774e501133f75cc22afc09a51f2936e
DBT2004-11-18d1t05.flac:8520d939a5069eaacc9f0981047a91b9
DBT2004-11-18d1t06.flac:997fa3ff75e465bcaf9b02954da8de67
DBT2004-11-18d1t07.flac:dbb605bcf80a6a6279f5da071637494a
DBT2004-11-18d1t08.flac:4bbc61b079449e557714117e4fa60135
DBT2004-11-18d1t09.flac:dcde19bf6ea4df43b10c9f5673d9f7b7
DBT2004-11-18d1t10.flac:7c9057844ab14c9aff4e436ee49aa138
DBT2004-11-18d1t11.flac:33669f44e1b8633291dc4fa049723364
DBT2004-11-18d1t12.flac:ed83d550f99680ff435dbd81e94b4957
DBT2004-11-18d1t13.flac:8304193578dcdcb9e7287d6f94cfd6b5
DBT2004-11-18d1t14.flac:a2616138869b3c63ed352a12113b29d6
DBT2004-11-18d2t01.flac:e4676ca5e9ae08b376b77dc6b6c7ac93
DBT2004-11-18d2t02.flac:59ca7c7507726c56fa18539f954815fa
DBT2004-11-18d2t03.flac:9d4b05fa91bda9c41c073ddb752a5855
DBT2004-11-18d2t04.flac:20d8f212e656212497c17ab794e23861
DBT2004-11-18d2t05.flac:ff0163033d86a65bbb9450b962932409
DBT2004-11-18d2t06.flac:aea841ffc810cd72e23cbc446e523e03
DBT2004-11-18d2t07.flac:1907df8dd2e0b493a32bdda50c6518d8
DBT2004-11-18d3t01.flac:1c510dabe864457841e3aaf8e7bf304e
DBT2004-11-18d3t02.flac:3e982539e115ab61ed8e2becd74d2a18
DBT2004-11-18d3t03.flac:3142013d5a7added3c6c6f01ee7e9b26
DBT2004-11-18d3t04.flac:7fac4bfd48f36ab3aa4ff527282e73db
DBT2004-11-18d3t05.flac:8065051053fec3562976bac503d95156
DBT2004-11-18d3t06.flac:c139bc17fbb5f0c093ac9bd696c549bd
DBT2004-11-18d3t07.flac:3fb468b7a279774355437440acfa808e
DBT2004-11-18d3t08.flac:7f792a0cd007f080239c511bd243c294
DBT2004-11-18d3t09.flac:efd09b6c50614cefd8b582e9430d6e77
DBT2004-11-18d3t10.flac:690d9aa997af6788b77f179e85bb1ec6

Comments
Add Comment
Date User Comment