Browse Collections Artists Sources   Search Dates

Add Show    List Management    Help


Drive-By Truckers 10/30/04
The Metro, Chicago, IL
Comments Add Comment    Source Collectors    Add to Collection    Add to Want List    History
Source # 30918 Other Sources
Entered by Kyle pike
Checksums d1
Disc Counts 0 / 0
Media Size
Date Circulated
Date Added

09/23/2005
Source Summary MBHO KA200N > 603A > V3 (Eric Foelske) 
Source Information - Download Text | Download Zip
Drive-By Truckers

Saturday, October 30, 2004
The Metro
Chicago, IL

Disc 1: (58:42)
01. Where the Devil Don't Stay
02. The Buford Stick
03. The Day John Henry Died
04. Tornados
05. Marry Me
06. Cottonseed
07. The Boys from Alabama
08. Goddamn Lonely Love
09. Decoration Day
10. Lookout Mountain

Disc 2: (64:05)
01. Women Without Whiskey
02. Daddy's Cup
03. The Living Bubba
04. The Sands of Iwo Jima
05. Never Gonna Change
06. The Company I Keep
07. Sink Hole
08. When the Pin Hits the Shell
09. Putting People on the Moon
Encore 1
10. "Tuning/Banter"
11. Grandaddy

Disc 3: (77:49)
01. Heathens
02. Guitar Man Upstairs
03. Zip City
04. Outfit
05. Bulldozers & Dirt
06. Wallace
07. Hell No I Ain't Happy
Encore 2
08. "Tuning/Banter"
09. I'm Eighteen
10. Danko/Manuel
11. Shut Up & Get on the Plane
12. Let There be Rock*
13. People Who Died
Filler: 10/30/04 KXRT Shenanigan's, Chicago, IL
14. Never Gonna Change (aborted)

Source: MBHO 603a/KA200 > V3(48k) > M1 (FOH-DFC)
Transfer: ARCHIVE Python 01931-XXX5AC > DAT2WAV > Samplitude > SoundForge > CDWave > FLAC16
Taped & Transfered by: Eric Foelske (taperwookie AT gmail.com)

* 37 seconds spliced in from Joe Perona's source: Shure KSM32 > USBPre > Powerbook G4.
Thanks, Joe!!

http://www.drivebytruckers.com
--------------------------------------------------------
FLAC Fingerprint:
--------------------------------------------------------
dbt2004-10-30d1t01.flac:10abad90e3c3f58a2a1077d36d07e298
dbt2004-10-30d1t02.flac:30bb2a45257bc84a56434c82a74e59ba
dbt2004-10-30d1t03.flac:22583f24bb532ad6afc7b474fa979c68
dbt2004-10-30d1t04.flac:293fed21dfd2fab7c4be644817be4338
dbt2004-10-30d1t05.flac:3ad80897edb6a3c2de4434a0e67346ef
dbt2004-10-30d1t06.flac:6e6e143c642ec0c5e5f8fa24c820ecda
dbt2004-10-30d1t07.flac:c81e751db26380bc8ea68223418b542d
dbt2004-10-30d1t08.flac:c7d5f34c8d801a7df8bef3de4af47fb5
dbt2004-10-30d1t09.flac:e1caeda5d8d87fc552eabde4ed8bf8cd
dbt2004-10-30d1t10.flac:ca66ab74ad0bbb6421af396bfc84f18b
dbt2004-10-30d2t01.flac:0ab8b370cfd4009d7d09535471f8dce2
dbt2004-10-30d2t02.flac:b1235c8cbae1efef90fceb06924f67bd
dbt2004-10-30d2t03.flac:47b0fba1a6d30f6eb4a1687461bb6cc9
dbt2004-10-30d2t04.flac:6cbe44b29a93ba364db4e7221c301515
dbt2004-10-30d2t05.flac:41a3ead473d81f99a8eed0a44aeb0890
dbt2004-10-30d2t06.flac:bfcb6e5d31c850859d5d04de82facc9a
dbt2004-10-30d2t07.flac:9b1648c8a51c33ee05d872c61c1930c1
dbt2004-10-30d2t08.flac:ab4bc0a639061ecd2d100f87cc03e93e
dbt2004-10-30d2t09.flac:5b9d92c1bc76a15b19ad9228357f5bf8
dbt2004-10-30d2t10.flac:999808ecedfd828f8363d6e88d7bb400
dbt2004-10-30d2t11.flac:9053be65d2b360c7eec500f43fadf2ef
dbt2004-10-30d3t01.flac:e43a6507b691860c8f48b6cbb3dcc408
dbt2004-10-30d3t02.flac:dc872b14ae8d88f767c493898c12b76c
dbt2004-10-30d3t03.flac:02ebf301797fba989d50f8ba252328a7
dbt2004-10-30d3t04.flac:4f1060dd1eef4167af6122cc3a9e8bcd
dbt2004-10-30d3t05.flac:ab8f6fcb305971609c9c24fa01b8c6c6
dbt2004-10-30d3t06.flac:1392e417421929c32a6b0947acb4b2b0
dbt2004-10-30d3t07.flac:933ae6ab973a965c08f151e925540938
dbt2004-10-30d3t08.flac:315d1384a9d0b72660ed522e87b3d803
dbt2004-10-30d3t09.flac:7c2849aef3bd8864b446d1976d493ffc
dbt2004-10-30d3t10.flac:9be19b8b21df149c7dc4fe4d779f40eb
dbt2004-10-30d3t11.flac:09bc9c9d24073f713a912e83f3f8075c
dbt2004-10-30d3t12.flac:d40018606aba6de0e63b00f5cedf700b
dbt2004-10-30d3t13.flac:430c03a753dbbb7d50812c746c3d417b
dbt2004-10-30d3t14.flac:bce02540e3624d97f5f1c6ad1972e8e0
--------------------------------------------------------
shntool
--------------------------------------------------------
    length     expanded size   cdr  WAVE problems filename
     5:57.07       62991308    ---   --   ---xx   dbt2004-10-30d1t01.flac
     4:38.22       49090988    ---   --   ---xx   dbt2004-10-30d1t02.flac
     3:35.03       37933100    ---   --   ---xx   dbt2004-10-30d1t03.flac
     5:47.46       61319036    ---   --   ---xx   dbt2004-10-30d1t04.flac
     5:56.11       62824316    ---   --   ---xx   dbt2004-10-30d1t05.flac
     7:17.04       77096252    ---   --   ---xx   dbt2004-10-30d1t06.flac
     8:14.61       87285116    ---   --   ---xx   dbt2004-10-30d1t07.flac
     5:28.35       57941564    ---   --   ---xx   dbt2004-10-30d1t08.flac
     6:43.72       71258588    ---   --   ---xx   dbt2004-10-30d1t09.flac
     5:03.49       53564492    ---   --   ---xx   dbt2004-10-30d1t10.flac
     4:41.66       49723676    ---   --   ---xx   dbt2004-10-30d2t01.flac
     5:55.59       62760812    ---   --   ---xx   dbt2004-10-30d2t02.flac
     6:31.38       69061820    ---   --   ---xx   dbt2004-10-30d2t03.flac
     9:30.45      100653884    ---   --   ---xx   dbt2004-10-30d2t04.flac
     5:45.72       61027388    ---   --   ---xx   dbt2004-10-30d2t05.flac
     8:20.26       88261196    ---   --   ---xx   dbt2004-10-30d2t06.flac
     3:47.28       40108700    ---   --   ---xx   dbt2004-10-30d2t07.flac
     4:07.59       43709612    ---   --   ---xx   dbt2004-10-30d2t08.flac
     7:56.41       84062876    ---   --   ---xx   dbt2004-10-30d2t09.flac
     4:04.30       43112204    ---   --   ---xx   dbt2004-10-30d2t10.flac
     3:23.56       35940956    ---   --   ---xx   dbt2004-10-30d2t11.flac
     6:28.37       68530268    ---   --   ---xx   dbt2004-10-30d3t01.flac
     4:01.28       42578300    ---   --   ---xx   dbt2004-10-30d3t02.flac
     5:34.00       58917644    ---   --   ---xx   dbt2004-10-30d3t03.flac
     5:16.05       55754204    ---   --   ---xx   dbt2004-10-30d3t04.flac
     5:44.69       60843932    ---   --   ---xx   dbt2004-10-30d3t05.flac
     4:36.36       48771116    ---   --   ---xx   dbt2004-10-30d3t06.flac
     9:10.12       97048268    ---   --   ---xx   dbt2004-10-30d3t07.flac
     2:48.18       29677580    ---   --   ---xx   dbt2004-10-30d3t08.flac
     5:14.67       55547228    ---   --   ---xx   dbt2004-10-30d3t09.flac
     5:51.59       62055212    ---   --   ---xx   dbt2004-10-30d3t10.flac
     4:24.72       46738988    ---   --   ---xx   dbt2004-10-30d3t11.flac
     5:33.38       58830620    ---   --   ---xx   dbt2004-10-30d3t12.flac
     8:51.69       93830732    ---   --   ---xx   dbt2004-10-30d3t13.flac
     4:12.35       44535164    ---   --   ---xx   dbt2004-10-30d3t14.flac
   200:37.25     2123387140 B                     (totals for 35 files, 0.5464 overall compression ratio)
Show Checksums
d1
dbt2004-10-30d1t01.flac:10abad90e3c3f58a2a1077d36d07e298
dbt2004-10-30d1t02.flac:30bb2a45257bc84a56434c82a74e59ba
dbt2004-10-30d1t03.flac:22583f24bb532ad6afc7b474fa979c68
dbt2004-10-30d1t04.flac:293fed21dfd2fab7c4be644817be4338
dbt2004-10-30d1t05.flac:3ad80897edb6a3c2de4434a0e67346ef
dbt2004-10-30d1t06.flac:6e6e143c642ec0c5e5f8fa24c820ecda
dbt2004-10-30d1t07.flac:c81e751db26380bc8ea68223418b542d
dbt2004-10-30d1t08.flac:c7d5f34c8d801a7df8bef3de4af47fb5
dbt2004-10-30d1t09.flac:e1caeda5d8d87fc552eabde4ed8bf8cd
dbt2004-10-30d1t10.flac:ca66ab74ad0bbb6421af396bfc84f18b
dbt2004-10-30d2t01.flac:0ab8b370cfd4009d7d09535471f8dce2
dbt2004-10-30d2t02.flac:b1235c8cbae1efef90fceb06924f67bd
dbt2004-10-30d2t03.flac:47b0fba1a6d30f6eb4a1687461bb6cc9
dbt2004-10-30d2t04.flac:6cbe44b29a93ba364db4e7221c301515
dbt2004-10-30d2t05.flac:41a3ead473d81f99a8eed0a44aeb0890
dbt2004-10-30d2t06.flac:bfcb6e5d31c850859d5d04de82facc9a
dbt2004-10-30d2t07.flac:9b1648c8a51c33ee05d872c61c1930c1
dbt2004-10-30d2t08.flac:ab4bc0a639061ecd2d100f87cc03e93e
dbt2004-10-30d2t09.flac:5b9d92c1bc76a15b19ad9228357f5bf8
dbt2004-10-30d2t10.flac:999808ecedfd828f8363d6e88d7bb400
dbt2004-10-30d2t11.flac:9053be65d2b360c7eec500f43fadf2ef
dbt2004-10-30d3t01.flac:e43a6507b691860c8f48b6cbb3dcc408
dbt2004-10-30d3t02.flac:dc872b14ae8d88f767c493898c12b76c
dbt2004-10-30d3t03.flac:02ebf301797fba989d50f8ba252328a7
dbt2004-10-30d3t04.flac:4f1060dd1eef4167af6122cc3a9e8bcd
dbt2004-10-30d3t05.flac:ab8f6fcb305971609c9c24fa01b8c6c6
dbt2004-10-30d3t06.flac:1392e417421929c32a6b0947acb4b2b0
dbt2004-10-30d3t07.flac:933ae6ab973a965c08f151e925540938
dbt2004-10-30d3t08.flac:315d1384a9d0b72660ed522e87b3d803
dbt2004-10-30d3t09.flac:7c2849aef3bd8864b446d1976d493ffc
dbt2004-10-30d3t10.flac:9be19b8b21df149c7dc4fe4d779f40eb
dbt2004-10-30d3t11.flac:09bc9c9d24073f713a912e83f3f8075c
dbt2004-10-30d3t12.flac:d40018606aba6de0e63b00f5cedf700b
dbt2004-10-30d3t13.flac:430c03a753dbbb7d50812c746c3d417b
dbt2004-10-30d3t14.flac:bce02540e3624d97f5f1c6ad1972e8e0

Comments
Add Comment
Other Sources (comments)
AKG 391 > Oade M148 > JB3... (0)
Date User Comment