Browse Collections Artists Sources   Search Dates

Add Show    List Management    Help


Drive-By Truckers 10/29/04
High Noon Saloon, Madison, WI
Comments Add Comment    Source Collectors    Add to Collection    Add to Want List    History
Source # 30919 Other Sources
Entered by Kyle pike
Checksums d1
Disc Counts 0 / 0
Media Size
Date Circulated
Date Added

09/23/2005
Source Summary MBHO KA200N > 603A > V3 (Eric Foelske) 
Source Information - Download Text | Download Zip
Drive-By Truckers

Friday, October 29, 2004
High Noon Saloon
Madison, WI

Disc 1: (61:09)
01. Sink Hole
02. The Buford Stick
03. Where the Devil Don't Stay
04. Lookout Mountain
05. Danko/Manuel
06. One of These Days
07. My Sweet Annette
08. Tornadoes
09. Goddamn Lonely Love
10. Marry Me
11. Cottonseed

Disc 2: (79:33)
01. The Boys From Alabama
02. The Company I Keep
03. Daddy's Cup
04. Carl Perkin's Cadillac
05. Nine Bullets
06. The Sands of Iwo Jima
07. Putting People on the Moon
Encore
08. "Tuning/Banter"
09. Grandaddy
10. Steve McQueen
11. Never Gonna Change
12. Zip City
13. Let There Be Rock

Source: MBHO 603a/KA200 > V3 > M1 (FOB-DFC)
Transfer: ARCHIVE Python 01931-XXX5AC > DAT2WAV > SoundForge > Samplitude(Ultra High 1) > CDWave > FLAC16
Taped & Transfered by: Eric Foelske (taperwookie AT gmail.com)

http://www.drivebytruckers.com
--------------------------------------------------------
FLAC Fingerprint:
--------------------------------------------------------
dbt2004-10-29d1t01.flac:d317e8c205b5ab1b1d1e56881b139bf4
dbt2004-10-29d1t02.flac:c3ec42e5253d1774f3a9d47fa19505ac
dbt2004-10-29d1t03.flac:cf92d4a825d8f7bd72164c3bbe251510
dbt2004-10-29d1t04.flac:7c31029dffefbc7c900c13475f160a45
dbt2004-10-29d1t05.flac:dbd8baef135d78c700f74b72b312b05f
dbt2004-10-29d1t06.flac:92eb216da90aa8ad6eb2d683fc659a24
dbt2004-10-29d1t07.flac:721f30112231d323e34bb1f3b7efcb18
dbt2004-10-29d1t08.flac:0033af61e532b4095a8bedb71a59b8be
dbt2004-10-29d1t09.flac:3a247eec1d5eb079e9330825728ba356
dbt2004-10-29d1t10.flac:2160512bd1a254f2453ca5e315c7bd83
dbt2004-10-29d1t11.flac:3f9a86b74738d5697a97cddb5855148a
dbt2004-10-29d2t01.flac:9512b9ea0331850ebbef524feb6d6b7f
dbt2004-10-29d2t02.flac:e74d96aa5928e7c5ec38feccde5aa4ca
dbt2004-10-29d2t03.flac:84a7446adad5b53f3ad1c76b2276fc60
dbt2004-10-29d2t04.flac:14083fdc9237c01fdf796f71089d29ac
dbt2004-10-29d2t05.flac:9d28e2409f3c181439f14b25dc45923e
dbt2004-10-29d2t06.flac:eba83cb4468118438e5b9b30c15810e7
dbt2004-10-29d2t07.flac:65c9ff9e19e370e4e3a2d814636a90fb
dbt2004-10-29d2t08.flac:ca1448dd34306eb0b6cb7683bcf47fe7
dbt2004-10-29d2t09.flac:297450177dee9624c173a5d2a0f32a7b
dbt2004-10-29d2t10.flac:521c1ecce1a5263c48fd4d6a1f4ec1c1
dbt2004-10-29d2t11.flac:0eba2cc52f716cc0cd919859f8667f98
dbt2004-10-29d2t12.flac:87116ed0889d8ad8185dae120c7de9e4
dbt2004-10-29d2t13.flac:a73a081e6918f70ac9095bd7b8696a3b
--------------------------------------------------------
shntool:
--------------------------------------------------------
    length     expanded size   cdr  WAVE problems filename
     4:29.74       47625692    ---   --   ---xx   dbt2004-10-29d1t01.flac
     4:41.38       49657820    ---   --   ---xx   dbt2004-10-29d1t02.flac
     5:35.54       59221052    ---   --   ---xx   dbt2004-10-29d1t03.flac
     5:23.61       57120716    ---   --   ---xx   dbt2004-10-29d1t04.flac
     6:00.69       63666332    ---   --   ---xx   dbt2004-10-29d1t05.flac
     6:03.36       64117916    ---   --   ---xx   dbt2004-10-29d1t06.flac
     4:33.46       48265436    ---   --   ---xx   dbt2004-10-29d1t07.flac
     5:44.21       60731036    ---   --   ---xx   dbt2004-10-29d1t08.flac
     5:21.26       56685596    ---   --   ---xx   dbt2004-10-29d1t09.flac
     6:08.01       64917596    ---   --   ---xx   dbt2004-10-29d1t10.flac
     7:06.72       75315788    ---   --   ---xx   dbt2004-10-29d1t11.flac
     8:23.71       88896236    ---   --   ---xx   dbt2004-10-29d2t01.flac
     8:03.26       85262396    ---   --   ---xx   dbt2004-10-29d2t02.flac
     6:09.48       65204540    ---   --   ---xx   dbt2004-10-29d2t03.flac
     5:37.54       59573852    ---   --   ---xx   dbt2004-10-29d2t04.flac
     4:42.13       49775420    ---   --   ---xx   dbt2004-10-29d2t05.flac
     6:26.37       68177468    ---   --   ---xx   dbt2004-10-29d2t06.flac
     7:43.58       81809660    ---   --   ---xx   dbt2004-10-29d2t07.flac
     3:57.46       41915036    ---   --   ---xx   dbt2004-10-29d2t08.flac
     3:43.17       39377228    ---   --   ---xx   dbt2004-10-29d2t09.flac
     6:05.49       64501292    ---   --   ---xx   dbt2004-10-29d2t10.flac
     5:04.35       53707964    ---   --   ---xx   dbt2004-10-29d2t11.flac
     5:20.02       56452748    ---   --   ---xx   dbt2004-10-29d2t12.flac
     8:15.50       87435644    ---   --   ---xx   dbt2004-10-29d2t13.flac
   140:43.29     1489414464 B                     (totals for 24 files, 0.5708 overall compression ratio)
Show Checksums
d1
dbt2004-10-29d1t01.flac:d317e8c205b5ab1b1d1e56881b139bf4
dbt2004-10-29d1t02.flac:c3ec42e5253d1774f3a9d47fa19505ac
dbt2004-10-29d1t03.flac:cf92d4a825d8f7bd72164c3bbe251510
dbt2004-10-29d1t04.flac:7c31029dffefbc7c900c13475f160a45
dbt2004-10-29d1t05.flac:dbd8baef135d78c700f74b72b312b05f
dbt2004-10-29d1t06.flac:92eb216da90aa8ad6eb2d683fc659a24
dbt2004-10-29d1t07.flac:721f30112231d323e34bb1f3b7efcb18
dbt2004-10-29d1t08.flac:0033af61e532b4095a8bedb71a59b8be
dbt2004-10-29d1t09.flac:3a247eec1d5eb079e9330825728ba356
dbt2004-10-29d1t10.flac:2160512bd1a254f2453ca5e315c7bd83
dbt2004-10-29d1t11.flac:3f9a86b74738d5697a97cddb5855148a
dbt2004-10-29d2t01.flac:9512b9ea0331850ebbef524feb6d6b7f
dbt2004-10-29d2t02.flac:e74d96aa5928e7c5ec38feccde5aa4ca
dbt2004-10-29d2t03.flac:84a7446adad5b53f3ad1c76b2276fc60
dbt2004-10-29d2t04.flac:14083fdc9237c01fdf796f71089d29ac
dbt2004-10-29d2t05.flac:9d28e2409f3c181439f14b25dc45923e
dbt2004-10-29d2t06.flac:eba83cb4468118438e5b9b30c15810e7
dbt2004-10-29d2t07.flac:65c9ff9e19e370e4e3a2d814636a90fb
dbt2004-10-29d2t08.flac:ca1448dd34306eb0b6cb7683bcf47fe7
dbt2004-10-29d2t09.flac:297450177dee9624c173a5d2a0f32a7b
dbt2004-10-29d2t10.flac:521c1ecce1a5263c48fd4d6a1f4ec1c1
dbt2004-10-29d2t11.flac:0eba2cc52f716cc0cd919859f8667f98
dbt2004-10-29d2t12.flac:87116ed0889d8ad8185dae120c7de9e4
dbt2004-10-29d2t13.flac:a73a081e6918f70ac9095bd7b8696a3b

Comments
Add Comment
Date User Comment