Browse Collections Artists Sources   Search Dates

Add Show    List Management    Help


Drive-By Truckers 10/28/04
IMU Wheelroom, U of I, Iowa City, IA
Comments Add Comment    Source Collectors    Add to Collection    Add to Want List    History
Source # 30920 Other Sources
Entered by Kyle pike
Checksums d1
Disc Counts 0 / 0
Media Size
Date Circulated
Date Added

09/23/2005
Source Summary [SBD > mod.SBM-1 > D8] + [MBHO 603a/KA200 > V3 > M1] (Will Craig / Eric Foelske) 
Source Information - Download Text | Download Zip
Drive-By Truckers

Thursday, October 28, 2004
The Wheelroom - Iowa Memorial Union
University of Iowa
Iowa City, IA

Disc 1: (51:33)
01. Tornadoes
02. Where the Devil Don't Stay
03. The Day John Henry Died
04. The Buford Stick
05. Sink Hole
06. Cottonseed
07. Never Gonna Change
08. The Sands of Iwo Jima
09. Putting People on the Moon
10. Carl Perkin's Cadillac

Disc 2: (45:42)
01. Daddy's Cup
02. Steve McQueen
03. Nine Bullets
04. Lookout Mountain
Encore
05. "Tuning/Banter"
06. Grandaddy
07. Goddamn Lonely Love
08. Marry Me

Source:[SBD > mod.SBM-1(48k) > D8]+[MBHO 603a/KA200 > V3(ANSR/44.1k) > M1(FOB-DFC)] Post-Mix
Transfer: ARCHIVE Python 01931-XXX5AC > DAT2WAV > Samplitude > Wavelab > SoundForge > CDWave > FLAC16
Taped by: Will Craig & Eric Foelske
Transfered by: Eric Foelske (taperwookie AT gmail.com)

http://www.drivebytruckers.com
--------------------------------------------------------
FLAC Fingerprint:
--------------------------------------------------------
dbt2004-10-28d1t01.flac:3efe773efc103d0b5fea05c754324c39
dbt2004-10-28d1t02.flac:6baac1d4c752e64da00086f13a9d8eb1
dbt2004-10-28d1t03.flac:0708efe9da7ec8abc306c1820ebfb1f3
dbt2004-10-28d1t04.flac:31a12ed951b8356797636857fc09b3bc
dbt2004-10-28d1t05.flac:443cd95d1a44d70f79a19681083cd5ff
dbt2004-10-28d1t06.flac:e8a85263883192cbcf0e95c78eb34eba
dbt2004-10-28d1t07.flac:b66ed279329bb4dd02e2d8ab1e6a7d03
dbt2004-10-28d1t08.flac:cb3e2486c6fdc2d212383ac1df9dcf93
dbt2004-10-28d1t09.flac:41cf376361666c47d335c3d54d8f3be8
dbt2004-10-28d1t10.flac:0142f9e38e26e199608fe747d574c7b5
dbt2004-10-28d2t01.flac:a617a107c53f33ad89d82902babca55b
dbt2004-10-28d2t02.flac:e351d6e3f89f7ef190207afd644dd6ef
dbt2004-10-28d2t03.flac:15478a2389ca68194bed98e955a06e04
dbt2004-10-28d2t04.flac:a759c71900da7802701284ffa2692ee6
dbt2004-10-28d2t05.flac:36ebc8d774a02a65a98ac12e7e45467b
dbt2004-10-28d2t06.flac:9e6d1384efff4c54df6d904278c206cc
dbt2004-10-28d2t07.flac:5a3176da0a6f7f8060325d8e5274a60a
dbt2004-10-28d2t08.flac:440d728a6576f663ff137589d5b80e33
---------------------------------------------------------
shntool:
---------------------------------------------------------
    length     expanded size   cdr  WAVE problems filename
     5:04.58       53762060    ---   --   ---xx   dbt2004-10-28d1t01.flac
     5:36.05       59282204    ---   --   ---xx   dbt2004-10-28d1t02.flac
     3:26.02       36343148    ---   --   ---xx   dbt2004-10-28d1t03.flac
     4:29.67       47609228    ---   --   ---xx   dbt2004-10-28d1t04.flac
     3:45.49       39805292    ---   --   ---xx   dbt2004-10-28d1t05.flac
     6:48.23       72025340    ---   --   ---xx   dbt2004-10-28d1t06.flac
     5:08.01       54333596    ---   --   ---xx   dbt2004-10-28d1t07.flac
     6:04.71       64376636    ---   --   ---xx   dbt2004-10-28d1t08.flac
     5:29.61       58179116    ---   --   ---xx   dbt2004-10-28d1t09.flac
     5:39.59       59938412    ---   --   ---xx   dbt2004-10-28d1t10.flac
     6:03.04       64042652    ---   --   ---xx   dbt2004-10-28d2t01.flac
     8:00.45       84777884    ---   --   ---xx   dbt2004-10-28d2t02.flac
     4:23.05       46405004    ---   --   ---xx   dbt2004-10-28d2t03.flac
     6:22.59       67523612    ---   --   ---xx   dbt2004-10-28d2t04.flac
     2:08.68       22739180    ---   --   ---xx   dbt2004-10-28d2t05.flac
     3:16.44       34677932    ---   --   ---xx   dbt2004-10-28d2t06.flac
     4:57.66       52546076    ---   --   ---xx   dbt2004-10-28d2t07.flac
     6:15.72       66319388    ---   --   ---xx   dbt2004-10-28d2t08.flac
    97:15.46     1029403028 B                     (totals for 18 files, 0.6073 overall compression ratio)
Show Checksums
d1
dbt2004-10-28d1t01.flac:3efe773efc103d0b5fea05c754324c39
dbt2004-10-28d1t02.flac:6baac1d4c752e64da00086f13a9d8eb1
dbt2004-10-28d1t03.flac:0708efe9da7ec8abc306c1820ebfb1f3
dbt2004-10-28d1t04.flac:31a12ed951b8356797636857fc09b3bc
dbt2004-10-28d1t05.flac:443cd95d1a44d70f79a19681083cd5ff
dbt2004-10-28d1t06.flac:e8a85263883192cbcf0e95c78eb34eba
dbt2004-10-28d1t07.flac:b66ed279329bb4dd02e2d8ab1e6a7d03
dbt2004-10-28d1t08.flac:cb3e2486c6fdc2d212383ac1df9dcf93
dbt2004-10-28d1t09.flac:41cf376361666c47d335c3d54d8f3be8
dbt2004-10-28d1t10.flac:0142f9e38e26e199608fe747d574c7b5
dbt2004-10-28d2t01.flac:a617a107c53f33ad89d82902babca55b
dbt2004-10-28d2t02.flac:e351d6e3f89f7ef190207afd644dd6ef
dbt2004-10-28d2t03.flac:15478a2389ca68194bed98e955a06e04
dbt2004-10-28d2t04.flac:a759c71900da7802701284ffa2692ee6
dbt2004-10-28d2t05.flac:36ebc8d774a02a65a98ac12e7e45467b
dbt2004-10-28d2t06.flac:9e6d1384efff4c54df6d904278c206cc
dbt2004-10-28d2t07.flac:5a3176da0a6f7f8060325d8e5274a60a
dbt2004-10-28d2t08.flac:440d728a6576f663ff137589d5b80e33

Comments
Add Comment
Date User Comment