Browse Collections Artists Sources   Search Dates

Add Show    List Management    Help


Drive-By Truckers 10/08/04
Mercy Lounge, Nashville, TN
Comments Add Comment    Source Collectors    Add to Collection    Add to Want List    History
Source # 30923 Other Sources
Entered by Kyle pike
Checksums d1
Disc Counts 0 / 0
Media Size
Date Circulated
Date Added

09/23/2005
Source Summary Schoeps MK4 > CMC6 > SX-M2 > M1 (Martin Medley) 
Source Information - Download Text | Download Zip
Drive-By Truckers
2004-10-08
Mercy Lounge
Nashville, TN.


Source: MK4V/CMC6 > SX-M2 > M1 @ 48kHz
Transfer: M1 > vxPocket v2 > WaveLab 5.0a > Soundforge 7.0 (track/re-sample/fades) > shntool > FLAC
Recorded, Transferred, and Seeded by Martin Medley

One Set:


Disc 1:

01. Where The Devil Don't Stay
02. Tornados
03. Margo And Harold
04. The Day John Henry Died
05. Buford Stick
06. Cottonseed
07. Boys From Alabama
08. Goddamned Lonely Love
09. Let Me Roll It
10. Sinkhole
11. Marry Me
12. Carl Perkins Cadillac
13. Sandwiches For The Road


Disc 2:

01. My Sweet Annette
02. Ain't Never Gonna Change
03. Outfit
04. 18 Wheels Of Love
05. Daddy's Cup
06. Lookout Mountain
07. Puttin' People On The Moon

Encore:

08. Women Without Whiskey
09. Steve McQueen
10. Steve McQueen > Hell No I Ain't Happy
11. Nine Bullets
12. Zip City
13. Shut Up And Get On The Plane



shntool info:

    length     expanded size   cdr  WAVE problems filename
     5:37.00       59446844    ---   --   -----   dbt2004-10-08d1t01.wav
     5:28.43       57960380    ---   --   -----   dbt2004-10-08d1t02.wav
     6:22.27       67448348    ---   --   -----   dbt2004-10-08d1t03.wav
     3:35.36       38010716    ---   --   -----   dbt2004-10-08d1t04.wav
     4:38.45       49145084    ---   --   -----   dbt2004-10-08d1t05.wav
     6:45.73       71613740    ---   --   -----   dbt2004-10-08d1t06.wav
     6:40.15       70595324    ---   --   -----   dbt2004-10-08d1t07.wav
     5:43.35       60587564    ---   --   -----   dbt2004-10-08d1t08.wav
     5:46.35       61116764    ---   --   -----   dbt2004-10-08d1t09.wav
     3:46.59       40005212    ---   --   -----   dbt2004-10-08d1t10.wav
     6:00.40       63598124    ---   --   -----   dbt2004-10-08d1t11.wav
     6:56.27       73445948    ---   --   -----   dbt2004-10-08d1t12.wav
     7:21.59       77931212    ---   --   -----   dbt2004-10-08d1t13.wav
     5:40.10       59999564    ---   --   -----   dbt2004-10-08d2t01.wav
     5:42.10       60352364    ---   --   -----   dbt2004-10-08d2t02.wav
     4:34.07       48350108    ---   --   -----   dbt2004-10-08d2t03.wav
     8:52.09       93866012    ---   --   -----   dbt2004-10-08d2t04.wav
     5:57.53       63099500    ---   --   -----   dbt2004-10-08d2t05.wav
     4:52.48       51621740    ---   --   -----   dbt2004-10-08d2t06.wav
     5:29.32       58110908    ---   --   -----   dbt2004-10-08d2t07.wav
     5:33.08       58760060    ---   --   -----   dbt2004-10-08d2t08.wav
     4:59.22       52795388    ---   --   -----   dbt2004-10-08d2t09.wav
     8:33.43       90594380    ---   --   -----   dbt2004-10-08d2t10.wav
     4:24.57       46703708    ---   --   -----   dbt2004-10-08d2t11.wav
     5:31.65       58541324    ---   --   -----   dbt2004-10-08d2t12.wav
     5:15.04       55575452    ---   --   -----   dbt2004-10-08d2t13.wav
   150:09.37     1589275768 B                     (totals for 26 files, 1.0000 overall compression ratio)


FLAC Fingerprint:

dbt2004-10-08d1t01.flac:650fb075a4e3f5d7d11208066299636f
dbt2004-10-08d1t02.flac:c1524519ef3c7cad1969b8d66ffa93da
dbt2004-10-08d1t03.flac:e3095697a2a35c7f1628acd4316475f1
dbt2004-10-08d1t04.flac:9e6b2faab23cc3b9e926b2011e8cac33
dbt2004-10-08d1t05.flac:a85d35d9cd625eb7023a7049349e5422
dbt2004-10-08d1t06.flac:8e2f4d28fea31f5c01b5c88aafd76c91
dbt2004-10-08d1t07.flac:8ef27caba8a226b8614ac8f1db1bce13
dbt2004-10-08d1t08.flac:c21460205ef6fc800619842915160e45
dbt2004-10-08d1t09.flac:1c420a7f7727a80871896825c3d521b7
dbt2004-10-08d1t10.flac:29628976147c7ea35da92bbfaeb457a5
dbt2004-10-08d1t11.flac:77c223c5f52e1b271effa164a1d3bbcc
dbt2004-10-08d1t12.flac:3e2e2112a83448fe7ff14d45b4b5b66c
dbt2004-10-08d1t13.flac:3bfb139caddaa681c6a3f52146628ec7
dbt2004-10-08d2t01.flac:d795ce21e2f036dd9407a5a1ff60e50a
dbt2004-10-08d2t02.flac:890a83e19bf2ae59a5c2bb4b22af3e1a
dbt2004-10-08d2t03.flac:a58147bb47fed960e50c61b3fab6089f
dbt2004-10-08d2t04.flac:edf2ebd7bb53d48fe2c32c93bf17ec4f
dbt2004-10-08d2t05.flac:1bbf9d2ff071ab150f074b818322a71d
dbt2004-10-08d2t06.flac:f8f47ba343afa22f1637fb6e03225a66
dbt2004-10-08d2t07.flac:cd4cdd4b2777fd485a9935b1646d2277
dbt2004-10-08d2t08.flac:2426b81ae1f07ae36f8b66879cc99c39
dbt2004-10-08d2t09.flac:7b32566d4f7ce7888f88abecb06e1061
dbt2004-10-08d2t10.flac:ab6bc74c79cd0ecfd96ab686252f48a9
dbt2004-10-08d2t11.flac:cf23d95a3a7078c05052d93bd8626a87
dbt2004-10-08d2t12.flac:d1888f1441ae8a4be881139e1a6fb710
dbt2004-10-08d2t13.flac:920909b286792038a3eb2f6769ff98d5
Show Checksums
d1
dbt2004-10-08d1t01.flac:650fb075a4e3f5d7d11208066299636f
dbt2004-10-08d1t02.flac:c1524519ef3c7cad1969b8d66ffa93da
dbt2004-10-08d1t03.flac:e3095697a2a35c7f1628acd4316475f1
dbt2004-10-08d1t04.flac:9e6b2faab23cc3b9e926b2011e8cac33
dbt2004-10-08d1t05.flac:a85d35d9cd625eb7023a7049349e5422
dbt2004-10-08d1t06.flac:8e2f4d28fea31f5c01b5c88aafd76c91
dbt2004-10-08d1t07.flac:8ef27caba8a226b8614ac8f1db1bce13
dbt2004-10-08d1t08.flac:c21460205ef6fc800619842915160e45
dbt2004-10-08d1t09.flac:1c420a7f7727a80871896825c3d521b7
dbt2004-10-08d1t10.flac:29628976147c7ea35da92bbfaeb457a5
dbt2004-10-08d1t11.flac:77c223c5f52e1b271effa164a1d3bbcc
dbt2004-10-08d1t12.flac:3e2e2112a83448fe7ff14d45b4b5b66c
dbt2004-10-08d1t13.flac:3bfb139caddaa681c6a3f52146628ec7
dbt2004-10-08d2t01.flac:d795ce21e2f036dd9407a5a1ff60e50a
dbt2004-10-08d2t02.flac:890a83e19bf2ae59a5c2bb4b22af3e1a
dbt2004-10-08d2t03.flac:a58147bb47fed960e50c61b3fab6089f
dbt2004-10-08d2t04.flac:edf2ebd7bb53d48fe2c32c93bf17ec4f
dbt2004-10-08d2t05.flac:1bbf9d2ff071ab150f074b818322a71d
dbt2004-10-08d2t06.flac:f8f47ba343afa22f1637fb6e03225a66
dbt2004-10-08d2t07.flac:cd4cdd4b2777fd485a9935b1646d2277
dbt2004-10-08d2t08.flac:2426b81ae1f07ae36f8b66879cc99c39
dbt2004-10-08d2t09.flac:7b32566d4f7ce7888f88abecb06e1061
dbt2004-10-08d2t10.flac:ab6bc74c79cd0ecfd96ab686252f48a9
dbt2004-10-08d2t11.flac:cf23d95a3a7078c05052d93bd8626a87
dbt2004-10-08d2t12.flac:d1888f1441ae8a4be881139e1a6fb710
dbt2004-10-08d2t13.flac:920909b286792038a3eb2f6769ff98d5

Comments
Add Comment
Date User Comment