Browse Collections Artists Sources   Search Dates

Add Show    List Management    Help


Drive-By Truckers 04/12/03
The Orange Peel, Asheville, NC
Comments Add Comment    Source Collectors    Add to Collection    Add to Want List    History
Source # 30932 Other Sources
Entered by Kyle pike
Checksums d1
Disc Counts 0 / 0
Media Size
Date Circulated
Date Added

09/23/2005
Source Summary AKG 483 > AD1000 > DA-P1 (Gordon Wilson) 
Source Information - Download Text | Download Zip
Drive By Truckers
4-12-03
The Orange Peel
Asheville,NC

source:    2' ROC  AKG 480/ck3 (xy) > AD1000 > DA-P1 @44.1
transfer:  DA-20mkII > audiophile 24/96 > wavelab 4.0 > cdwave > flac level 6

taped and transferred by gordon wilson

disc one:

1. Intro/tuning
2. Lookout Mountain
3. Careless
4. 72 (This Highway's Mean)
5. Heathens
6. Where The Devil Don't Stay
7. Sinkhole
8. One Of These Days
9. Hell No, I Ain't Happy
10. Decoration Day
11. Boys From Alabama
12. My Sweet Annette
13. Carl Perkins' Cadillac

disc two:

1. Ronnie & Neil
2. The Southern Thing Intro
3. The Southern Thing
4. Zip City
5. Let There Be Rock

Encore:
6. Banter
7. Give Pretty Soon
8. Outfit
9. Marry Me
10. The Living Bubba
11. Do It Yourself
12. Angels & Fuselage

notes:
- levels fluctuate slightly in Lookout Mountain
- fades added at the beginning and end of disc with wavelab 4.0
- sector boundaries confirmed with shntool v2.0.3
- master cut during Angles & Fuselage
- remaining 5 mins spliced with chris pennington's akg 483 > hhb source


ffp:
dbt2003-04-12d1t01.flac:4dbda5069e2a7e0f1e1e96a8fef65965
dbt2003-04-12d1t02.flac:6f2ac7e786640d39ce2e47108c466137
dbt2003-04-12d1t03.flac:063d0c552b56465ed1f55c5d99d1ce41
dbt2003-04-12d1t04.flac:1cfcb14789221d6b0765485a16645751
dbt2003-04-12d1t05.flac:2c0853ea397910a5a8ed3571124fa63d
dbt2003-04-12d1t06.flac:d8d0f1627c2c030fc1fa319d0bdf5397
dbt2003-04-12d1t07.flac:91a045a4516b66738392ce1c079cbd05
dbt2003-04-12d1t08.flac:4c8304495cdddea3efe800c8f79450c9
dbt2003-04-12d1t09.flac:cdb42d12d81c7f13757648c48268743b
dbt2003-04-12d1t10.flac:f898b84e9fefe2f80d251f686b0c7f65
dbt2003-04-12d1t11.flac:a4416b8f096e937e54d6d89c99c3defb
dbt2003-04-12d1t12.flac:025f789505dd3180b9a7a0dd01f8161e
dbt2003-04-12d1t13.flac:4033191e682a41f759d1a2cad39ee857
dbt2003-04-12d2t01.flac:2734fc7cb87e85e06f1689685571bf60
dbt2003-04-12d2t02.flac:e9ccc153840569a94768d358406e4a0d
dbt2003-04-12d2t03.flac:b47cb481436f5653d3a8fe69e602a088
dbt2003-04-12d2t04.flac:3cbe4118d019f38de073a4f3f3c5a5c4
dbt2003-04-12d2t05.flac:e08b83e2b145700826faeb3bbf314c45
dbt2003-04-12d2t06.flac:ce33d8432f383a1e9d19816e159ab2f9
dbt2003-04-12d2t07.flac:72d8088a2dabb75c48819e2f30066af1
dbt2003-04-12d2t08.flac:830d024689290d869d77c98cf74890d3
dbt2003-04-12d2t09.flac:92a11118f8c4738bc38d17fb21970f79
dbt2003-04-12d2t10.flac:ada4eb2931093227a3d5b4a3656e3d2b
dbt2003-04-12d2t11.flac:1157ad9d510257090aa4e11329687515
dbt2003-04-12d2t12.flac:e837632bbe77bf98d0219b0a8b6963dc


shntool:
    length     expanded size   cdr  WAVE problems filename
     1:22.28       14530700    ---   --   ---xx   dbt2003-04-12d1t01.flac
     5:03.56       53580956    ---   --   ---xx   dbt2003-04-12d1t02.flac
     2:04.48       21986540    ---   --   ---xx   dbt2003-04-12d1t03.flac
     5:31.02       58393148    ---   --   ---xx   dbt2003-04-12d1t04.flac
     5:10.66       54839276    ---   --   ---xx   dbt2003-04-12d1t05.flac
     5:23.24       57033692    ---   --   ---xx   dbt2003-04-12d1t06.flac
     3:24.12       36013868    ---   --   ---xx   dbt2003-04-12d1t07.flac
     4:56.17       52254428    ---   --   ---xx   dbt2003-04-12d1t08.flac
     4:51.52       51454748    ---   --   ---xx   dbt2003-04-12d1t09.flac
     5:42.37       60415868    ---   --   ---xx   dbt2003-04-12d1t10.flac
     7:25.41       78594476    ---   --   ---xx   dbt2003-04-12d1t11.flac
     4:19.28       45753500    ---   --   ---xx   dbt2003-04-12d1t12.flac
     5:18.18       56137580    ---   --   ---xx   dbt2003-04-12d1t13.flac
     4:52.69       51671132    ---   --   ---xx   dbt2003-04-12d2t01.flac
     4:17.10       45358364    ---   --   ---xx   dbt2003-04-12d2t02.flac
     5:45.56       60989756    ---   --   ---xx   dbt2003-04-12d2t03.flac
     5:02.73       53444540    ---   --   ---xx   dbt2003-04-12d2t04.flac
     8:55.46       94482236    ---   --   ---xx   dbt2003-04-12d2t05.flac
     2:15.25       23872844    ---   --   ---xx   dbt2003-04-12d2t06.flac
     4:04.66       43196876    ---   --   ---xx   dbt2003-04-12d2t07.flac
     4:15.49       45097292    ---   --   ---xx   dbt2003-04-12d2t08.flac
     5:24.33       57231260    ---   --   ---xx   dbt2003-04-12d2t09.flac
     6:10.34       65348012    ---   --   ---xx   dbt2003-04-12d2t10.flac
     3:13.67       34202828    ---   --   ---xx   dbt2003-04-12d2t11.flac
     9:38.72      102128588    ---   --   ---xx   dbt2003-04-12d2t12.flac
   124:31.54        1256.95 MB                    (totals for 25 files, 0.5406 overall compression ratio)


eac log:
EAC extraction logfile from 7. April 2005, 21:59 for CD
Unknown Artist / Unknown Title

Used drive  : _NEC    DVD_RW ND-3520A   Adapter: 1  ID: 0
Read mode   : Secure with C2, accurate stream, NO disable cache
Combined read/write offset correction : 66
Overread into Lead-In and Lead-Out : No

Used output format : Internal WAV Routines
                     44.100 Hz; 16 Bit; Stereo

Other options      :
    Fill up missing offset samples with silence : Yes
    Delete leading and trailing silent blocks : No
    Installed external ASPI interface



Track  8
     Filename F:\My Music\transfer stuff\dbt splice\Track08.wav

     Peak level 92.7 %
     Track quality 100.0 %
     Copy CRC F0FDE878
     Copy OK

No errors occured


End of status report
Show Checksums
d1
dbt2003-04-12d1t01.flac:4dbda5069e2a7e0f1e1e96a8fef65965
dbt2003-04-12d1t02.flac:6f2ac7e786640d39ce2e47108c466137
dbt2003-04-12d1t03.flac:063d0c552b56465ed1f55c5d99d1ce41
dbt2003-04-12d1t04.flac:1cfcb14789221d6b0765485a16645751
dbt2003-04-12d1t05.flac:2c0853ea397910a5a8ed3571124fa63d
dbt2003-04-12d1t06.flac:d8d0f1627c2c030fc1fa319d0bdf5397
dbt2003-04-12d1t07.flac:91a045a4516b66738392ce1c079cbd05
dbt2003-04-12d1t08.flac:4c8304495cdddea3efe800c8f79450c9
dbt2003-04-12d1t09.flac:cdb42d12d81c7f13757648c48268743b
dbt2003-04-12d1t10.flac:f898b84e9fefe2f80d251f686b0c7f65
dbt2003-04-12d1t11.flac:a4416b8f096e937e54d6d89c99c3defb
dbt2003-04-12d1t12.flac:025f789505dd3180b9a7a0dd01f8161e
dbt2003-04-12d1t13.flac:4033191e682a41f759d1a2cad39ee857
dbt2003-04-12d2t01.flac:2734fc7cb87e85e06f1689685571bf60
dbt2003-04-12d2t02.flac:e9ccc153840569a94768d358406e4a0d
dbt2003-04-12d2t03.flac:b47cb481436f5653d3a8fe69e602a088
dbt2003-04-12d2t04.flac:3cbe4118d019f38de073a4f3f3c5a5c4
dbt2003-04-12d2t05.flac:e08b83e2b145700826faeb3bbf314c45
dbt2003-04-12d2t06.flac:ce33d8432f383a1e9d19816e159ab2f9
dbt2003-04-12d2t07.flac:72d8088a2dabb75c48819e2f30066af1
dbt2003-04-12d2t08.flac:830d024689290d869d77c98cf74890d3
dbt2003-04-12d2t09.flac:92a11118f8c4738bc38d17fb21970f79
dbt2003-04-12d2t10.flac:ada4eb2931093227a3d5b4a3656e3d2b
dbt2003-04-12d2t11.flac:1157ad9d510257090aa4e11329687515
dbt2003-04-12d2t12.flac:e837632bbe77bf98d0219b0a8b6963dc

Comments
Add Comment
Date User Comment