Browse Collections Artists Sources   Search Dates

Add Show    List Management    Help


Grateful Dead 03/31/93
Nassau Coliseum, Uniondale, NY
Comments Add Comment    Source Collectors    Add to Collection    Add to Want List    History
Source # 31000 Other Sources
Entered by Darryl Hinko
Checksums ffp , flac-md5
Disc Counts 1 / 1
Media Size
Date Circulated
Date Added
09/26/2005
09/28/2005
Source Summary Soundcheck ; *Note* this is a fixed copy of Ken K's original flac seed. Source: Unknown Generation cassette (a montior feed or an "AUD" tape made inside the venue?) ; Transfer & Encoding by Ken K. ; track renaming and sector error fix by one of the folks @ tmnsp.net 
  Archive
Source Information - Download Text | Download Zip
Grateful Dead
Nassau Coliseum - Uniondale, NY
March 31, 1993
Soundcheck

***PLEASE NOTE***

This is a track rename and sbe fixed copy of Ken K's original flac seed.



Source: Unknown Generation cassette (I really can't tell if this is a montior feed or an "AUD" tape made inside the venue.)

If anyone has a better or more complete copy of this, please let me know.  I sure would like to hear it.  Nobody I've talked with seems to have anything from this soundcheck, so I figured I'd circulate this.


Transfer/Encoding: cassette playback on Tascam 103 > Tascam CD-RW700 >
                   CD-RW > EAC > .wav > Cool Edit Pro 2.0 (to delete
                   silence) > CDwave (to track) > FLAC FrontEnd >
                   .flac seeds

Transfer & Encoding by Ken K.

track renaming and sector error fix by one of the folks @ tmnsp.net ;)

Thanks to Ken K for the flac files.

Soundcheck:

.01 Cumberland Blues
.02 Lazy River Road
.03 I Fought The Law (aborted)
.04 I Fought The Law  
.05 Jerry: "I don't know why I love that dumb song so much..."
      Vince: "You're just a rebel, I guess..."

ORIGINAL
SHNTOOL OUTPUT:

    length     expanded size   cdr  WAVE problems filename
     5:06.36       54063116    ---   --   -----   d1t01.wav
     9:15.03       97909100    ---   --   -----   d1t02.wav
     1:08.23       12049340    ---   --   -----   d1t03.wav
     2:59.33       31653260    ---   --   -----   d1t04.wav
     1:43.28       18235492    -b-   --   -----   d1t05.wav
    20:12.48      213910308 B                     (totals for 5 files, 1.0000 overall compression ratio)


THIS SEED
SHNTOOL OUTPUT:

    length     expanded size   cdr  WAVE problems filename
     5:06.36       54063116    ---   --   -----   gd93-03-31d1t01.wav
     9:15.03       97909100    ---   --   -----   gd93-03-31d1t02.wav
     1:08.23       12049340    ---   --   -----   gd93-03-31d1t03.wav
     2:59.33       31653260    ---   --   -----   gd93-03-31d1t04.wav
     1:43.29       18237452    ---   --   -----   gd93-03-31d1t05.wav
    20:12.49      213912268 B                     (totals for 5 files, 1.0000 overall compression ratio)


FLAC FINGERPRINTS:

gd93-03-31d1t01.flac:4fd81ff506366f49a85fb1616ef73a27
gd93-03-31d1t02.flac:ff0c58dd9598223293d597d8b97b68b8
gd93-03-31d1t03.flac:62eb6d436335a863391a1b67c0daee0a
gd93-03-31d1t04.flac:c45115db4941a2c2273674c7169ebd46
gd93-03-31d1t05.flac:6c46b38e2a4006566cfa9924d30c2148


FLAC-MD5:

905ba3542c94bf5794c3d343487c9fa5 *gd93-03-31d1t01.flac
7973b98d26fd31a85c2238902017bd02 *gd93-03-31d1t02.flac
0b2537d09b97da22a082d566e1daa4a2 *gd93-03-31d1t03.flac
3c88ecaaec92ad8d22b43c7bb7f7f9d8 *gd93-03-31d1t04.flac
dc16bd8c82a36922a956d8ede73da83e *gd93-03-31d1t05.flac
Show Checksums
ffp
gd93-03-31d1t01.flac:4fd81ff506366f49a85fb1616ef73a27
gd93-03-31d1t02.flac:ff0c58dd9598223293d597d8b97b68b8
gd93-03-31d1t03.flac:62eb6d436335a863391a1b67c0daee0a
gd93-03-31d1t04.flac:c45115db4941a2c2273674c7169ebd46
gd93-03-31d1t05.flac:6c46b38e2a4006566cfa9924d30c2148
flac-md5
905ba3542c94bf5794c3d343487c9fa5 *gd93-03-31d1t01.flac
7973b98d26fd31a85c2238902017bd02 *gd93-03-31d1t02.flac
0b2537d09b97da22a082d566e1daa4a2 *gd93-03-31d1t03.flac
3c88ecaaec92ad8d22b43c7bb7f7f9d8 *gd93-03-31d1t04.flac
dc16bd8c82a36922a956d8ede73da83e *gd93-03-31d1t05.flac

Comments
Add Comment
Other Sources (comments)
AUD(Schoeps CMC... (0) Recording Info: SBD -> Dat... (0) flac16/48; AUD: AKG... (0) flac16; AUD: AKG... (0) flac16; Recording... (0) flac16; Source:... (0) flac16/48kHz; Source... (0) flac16/48kHz;... (0)
Date User Comment