Browse Collections Artists Sources   Search Dates

Add Show    List Management    Help


Grateful Dead 12/01/79
Stanley Theater, Pittsburgh, PA
Comments Add Comment    Source Collectors    Add to Collection    Add to Want List    History
Source # 31330 Other Sources
Entered by Matt Vernon
Checksums ffp , flac-md5
Disc Counts 2 / 3
Media Size
Date Circulated
Date Added
10/25/2005
10/27/2005
Source Summary flac16; AUD (unknown equipment and lineage, speculated to have been taped by Scott Jones with Shure > Sony TC-158) via Andrew F 
  Archive
Source Information - Download Text | Download Zip
GRATEFUL DEAD
Stanley Theater
Pittsburgh PA
12-01-1979

AUD (unknown equipment and lineage, see note below)

Disc One (77:51)

01 crowd & tuning
02 Jack Straw >
03 Sugaree
04 Me & My Uncle >
05 Big River
06 Loser
07 Easy to Love You
08 Minglewood Blues
09 Althea
10 The Music Never Stopped
-- set break --

Disc Two (61:39)

01 crowd & tuning
02 China Cat Sunflower >
03 I Know You Rider
04 Looks Like Rain
05 He's Gone > Jam >
06 Gloria Jam >
07 C.C. Rider >
08 Jam >

Disc Three (47:55)

01 Drums >
02 Not Fade Away >
03 Black Peter >
04 Sugar Magnolia
-- encore --
05 crowd & tuning
06 One More Saturday Night

CDR > EAC > WavMerge > Soundforge > CD-Wave > TLH >
FLAC Frontend by Andrew F, October 2005. I used SF
to make fades for the beginning and ending of sets;
WavMerge and CD-Wave to put some of the track ID's
into the correct position; TLH to verify SBE-OK and
make checksums; and FLAC Frontend for lossless
compression.

I'm not certain, but this is likely the AUD tape
made by Scott Jones, with Shure mics into a Sony
TC-158 cassette deck (he taped both nights). It
clearly sounds like it was made within the first
fifteen rows or so, and is an excellent recording
for this period.

Over the years, we've all heard the excellent sbd
tapes of this great show. Now here it is from the
audience perspective, which is thrilling to hear.
Enjoy this tremendous tape! With a big tip of the
cap to Jake Feinberg for sharing these discs.

:)


    length     expanded size   cdr  WAVE problems filename
     0:52.56        9304556    ---   --   ---xx   gd1979-12-01-aud-d1t01.flac
     5:38.24       59679692    ---   --   ---xx   gd1979-12-01-aud-d1t02.flac
    18:11.40      192546524    ---   --   ---xx   gd1979-12-01-aud-d1t03.flac
     3:06.40       32904524    ---   --   ---xx   gd1979-12-01-aud-d1t04.flac
     7:07.27       75386348    ---   --   ---xx   gd1979-12-01-aud-d1t05.flac
     8:20.22       88251788    ---   --   ---xx   gd1979-12-01-aud-d1t06.flac
     4:12.42       44551628    ---   --   ---xx   gd1979-12-01-aud-d1t07.flac
     7:57.68       84302780    ---   --   ---xx   gd1979-12-01-aud-d1t08.flac
    13:04.73      138469340    ---   --   ---xx   gd1979-12-01-aud-d1t09.flac
     9:19.55       98737004    ---   --   ---xx   gd1979-12-01-aud-d1t10.flac
     1:11.02       12529148    ---   --   ---xx   gd1979-12-01-aud-d2t01.flac
     5:22.56       56932556    ---   --   ---xx   gd1979-12-01-aud-d2t02.flac
     7:59.15       84530924    ---   --   ---xx   gd1979-12-01-aud-d2t03.flac
    11:00.70      116588684    ---   --   ---xx   gd1979-12-01-aud-d2t04.flac
    16:15.39      172081772    ---   --   ---xx   gd1979-12-01-aud-d2t05.flac
     7:18.44       77366732    ---   --   ---xx   gd1979-12-01-aud-d2t06.flac
     7:09.36       75760316    ---   --   ---xx   gd1979-12-01-aud-d2t07.flac
     5:22.19       56845532    ---   --   ---xx   gd1979-12-01-aud-d2t08.flac
    10:38.17      112583228    ---   --   ---xx   gd1979-12-01-aud-d3t01.flac
     9:22.35       99219164    ---   --   ---xx   gd1979-12-01-aud-d3t02.flac
    11:37.63      123099020    ---   --   ---xx   gd1979-12-01-aud-d3t03.flac
     9:09.65       96996524    ---   --   ---xx   gd1979-12-01-aud-d3t04.flac
     1:58.36       20899916    ---   --   ---xx   gd1979-12-01-aud-d3t05.flac
     5:08.42       54430028    ---   --   ---xx   gd1979-12-01-aud-d3t06.flac
   187:27.11     1983997728 B                     (totals for 24 files, 0.5628 overall compression ratio)

There were no sector boundary errors.
Show Checksums
ffp
gd1979-12-01-aud-d1t01.flac:c7c3f88376abf21a8cf42f35d083f96d
gd1979-12-01-aud-d1t02.flac:c013839828fafbdc9534e78d66198631
gd1979-12-01-aud-d1t03.flac:e3ba61c993fca4a6e4bb7fae0ee8062c
gd1979-12-01-aud-d1t04.flac:d3b108beee7ea96198e0a9ef285d9231
gd1979-12-01-aud-d1t05.flac:de5decf9450af315433b72c02b84c278
gd1979-12-01-aud-d1t06.flac:00cc6f028de243d64912f8a29127d175
gd1979-12-01-aud-d1t07.flac:ccfb66f6d5b3a3d587fcab9327f2d9df
gd1979-12-01-aud-d1t08.flac:fc41899082acfb82ee5d2057c14992ee
gd1979-12-01-aud-d1t09.flac:7a703a84137192ec2246410cb35e28d4
gd1979-12-01-aud-d1t10.flac:af2a59cfbae9f492ff8acbb8cc5673ac
gd1979-12-01-aud-d2t01.flac:584b00208c862f0abf3c17aac46b9a12
gd1979-12-01-aud-d2t02.flac:24971920d112122ee6b4962f2a63913c
gd1979-12-01-aud-d2t03.flac:b04658a616972555473f2ca869ca5e0c
gd1979-12-01-aud-d2t04.flac:1a0666e53d5e63927282ca76f4c48bd4
gd1979-12-01-aud-d2t05.flac:6600651b928c6c1b6deecc5062d085cb
gd1979-12-01-aud-d2t06.flac:1c62c95e666b3084c3ed7f00982b88c5
gd1979-12-01-aud-d2t07.flac:43eb9e27d5fda5ff113c3e9a61dc4928
gd1979-12-01-aud-d2t08.flac:088232b3414150fb8076d422f57e644c
gd1979-12-01-aud-d3t01.flac:89ae0237dc885bef5fc1cc394c31ab2c
gd1979-12-01-aud-d3t02.flac:ad8203e3451641cd5ebb55bc2af467c9
gd1979-12-01-aud-d3t03.flac:1871145b22ca2a434b7422a48a4df1ff
gd1979-12-01-aud-d3t04.flac:5e91125b3f68c909d7b23be753810871
gd1979-12-01-aud-d3t05.flac:0ed96141ebd93c88a0af46819d095c61
gd1979-12-01-aud-d3t06.flac:eb2e7888fc90733783fe4a5f6482720c
flac-md5
07a74399d1fdae1ae8c47da6d0f41d02 *gd1979-12-01-aud-d1t01.flac
ff8b7155fc6ebe6a4475f8b7cf00e95e *gd1979-12-01-aud-d1t02.flac
2c7a78e9fc688430e167c173ad2f04cd *gd1979-12-01-aud-d1t03.flac
de21d7e9862f65d9032ddff693dff447 *gd1979-12-01-aud-d1t04.flac
8de0617056f61bb906b6f4d65f80c74c *gd1979-12-01-aud-d1t05.flac
15af3a02a61e722794b89c97f068b07e *gd1979-12-01-aud-d1t06.flac
a5fcfb781d3bc9e9e3a75adb53ca6c24 *gd1979-12-01-aud-d1t07.flac
dab655073e271e7f1f4122fb7b5638d9 *gd1979-12-01-aud-d1t08.flac
eccc72d5bef8b4f6cb8083a912fca304 *gd1979-12-01-aud-d1t09.flac
6c5d0fa65b0426eb8004490d7d293a1f *gd1979-12-01-aud-d1t10.flac
942cbe42d481fd9a14f47f4dc2970226 *gd1979-12-01-aud-d2t01.flac
3b247f0a2d1fba7245cdca647c49e70a *gd1979-12-01-aud-d2t02.flac
b5a146705351b82b7cf73e9f23a47dbc *gd1979-12-01-aud-d2t03.flac
8b86c8c9d747dc93539f13f128efff8e *gd1979-12-01-aud-d2t04.flac
65a78c78f8b8430f71eeb8d423ef58fa *gd1979-12-01-aud-d2t05.flac
afd900923a19305367e5264809abe698 *gd1979-12-01-aud-d2t06.flac
28ccd93093cec729bc6a189a7184d7da *gd1979-12-01-aud-d2t07.flac
7ed941091b62f0f9115a0b577202349e *gd1979-12-01-aud-d2t08.flac
bb519f708bd43625261d04d2870c5a1b *gd1979-12-01-aud-d3t01.flac
49484acb9e075dbde156a93a0c85db0d *gd1979-12-01-aud-d3t02.flac
d94611fb2e27f403628ca570065f2f5b *gd1979-12-01-aud-d3t03.flac
b6d42ac9e395dcdd01453adc47f4f6b2 *gd1979-12-01-aud-d3t04.flac
2d517d244f43c42aed96fec15de0772b *gd1979-12-01-aud-d3t05.flac
c04e467bc9161899e1c5642e4b1a74aa *gd1979-12-01-aud-d3t06.flac

Comments
Add Comment
Other Sources (comments)
set 2; MSR > Cassette > DAT... (0) mixed source: set 1: SBD>... (2) flac16; Recording... (1) flac16; Sick Bits... (3) flac16; Source:... (0) flac16; Recording by... (0) flac16; Recording... (0) flac16; Low-gen... (0)
Date User Comment