Browse Collections Artists Sources   Search Dates

Add Show    List Management    Help


North Mississippi Allstars 10/07/05
The Fillmore Auditorum, Denver, CO
Comments Add Comment    Source Collectors    Add to Collection    Add to Want List    History
Source # 31654 Other Sources
Entered by vanark
Checksums ffp
Disc Counts 1 / 2
Media Size
Date Circulated
Date Added
10/09/2005
11/26/2005
Source Summary Source: MK4>ORTF>KC5>CMC6>KindKables>V3>Optical>JB3 (HPF 0) 
  Archive
Source Information - Download Text | Download Zip
North Mississippi Allstars

10/07/2005
Fillmore Auditorium
Denver, CO

Source: MK4>ORTF>KC5>CMC6>KindKables>V3>Optical>JB3 (HPF 0)

Location: Front Row Center of Taper Section, Directly behind Soundboard, Stand at 9'

Transfer: JB3>Firewire>CDWave>Fades with Soundforge 4.5>FLAC (level 7)

Taped and Transfered by: Bennett Schwartz (coloartist)

**Encode to mp3 only for personal use please**

Support Live Music:

www.nmallstars.com

Set 1

Disc 1:

1. Mean Ol' Wind Died Down
2. Bang Bang Lulu
3. Shake Em On Down
4. Teasin' Brown
5. Run On
6. Hurry Up Sunrise
7. Ship
8. Moonshine
9. Georgia Women
10. Po Black Maddie>Skinny Women>Po Black Maddie
11. Goin Down South
12. Stompin' My Foot

Set 2

Disc 2:

1. Horseshoe
2. Freedom Highway
3. Psychedelic Sex Machine (Washboard)
4. Never In All My Days
5. Po' Boy Long Way From Home >
6. Snakedrive

Encore:

7. Mississippi Bollweevil
8. Shimmy She Wobble


Luther's guitar becomes unplugged during Snakedrive for 5 seconds while he jumps around.

Soulive and DJ Harry opened


length expanded size cdr WAVE problems filename
7:55.63 83938220 --- -- ---xx nmas10-07-05d1t01.flac
3:19.29 35171852 --- -- ---xx nmas10-07-05d1t02.flac
6:00.29 63572252 --- -- ---xx nmas10-07-05d1t03.flac
3:18.72 35096588 --- -- ---xx nmas10-07-05d1t04.flac
4:01.50 42630044 --- -- ---xx nmas10-07-05d1t05.flac
4:49.38 51069020 --- -- ---xx nmas10-07-05d1t06.flac
10:27.39 110694572 --- -- ---xx nmas10-07-05d1t07.flac
4:10.66 44255276 --- -- ---xx nmas10-07-05d1t08.flac
2:25.13 25608620 --- -- ---xx nmas10-07-05d1t09.flac
14:27.01 152941196 --- -- ---xx nmas10-07-05d1t10.flac
6:00.67 63661628 --- -- ---xx nmas10-07-05d1t11.flac
8:22.51 88672796 --- -- ---xx nmas10-07-05d1t12.flac
7:40.52 81266348 --- -- ---xx nmas10-07-05d2t01.flac
4:28.44 47378732 --- -- ---xx nmas10-07-05d2t02.flac
7:42.49 81612092 --- -- ---xx nmas10-07-05d2t03.flac
10:03.29 106437452 --- -- ---xx nmas10-07-05d2t04.flac
3:25.45 36267884 --- -- ---xx nmas10-07-05d2t05.flac
4:42.15 49780124 --- -- ---xx nmas10-07-05d2t06.flac
2:27.18 25973180 --- -- ---xx nmas10-07-05d2t07.flac
5:46.23 61088540 --- -- ---xx nmas10-07-05d2t08.flac
121:36.43 1287116416 B (totals for 20 files, 0.4732 overall compression ratio)
Show Checksums
ffp
nmas10-07-05d1t01.flac:f30e170f3d6ab311dc08e840ed23a2d8
nmas10-07-05d1t02.flac:7d487536323b936841da59f94537c301
nmas10-07-05d1t03.flac:d5280bcc0c5c23c8f18a757a927d91f0
nmas10-07-05d1t04.flac:1c52e7ad863ccb10c8e21b0c28c2c552
nmas10-07-05d1t05.flac:03e4672203e9a2cbbc37f2c89b1914cb
nmas10-07-05d1t06.flac:9b06f680b17ba6b1573a0002db1b650d
nmas10-07-05d1t07.flac:66ec2593891092638ccfe6c08568ac1b
nmas10-07-05d1t08.flac:73113e14c907028380c42033abd41e67
nmas10-07-05d1t09.flac:00e38cdfb79ae47e0feced85ed6baf3c
nmas10-07-05d1t10.flac:7808e0989c10ce717781ec1565f38336
nmas10-07-05d1t11.flac:2a5c3b1516ded799ff624255bacafd97
nmas10-07-05d1t12.flac:3bfbacb1f01bf8719961c9c538a8e195
nmas10-07-05d2t01.flac:fdd3003acf0a8c1f4116317be0f20245
nmas10-07-05d2t02.flac:808b95d4c0ff1c55bac4fd82ed70725c
nmas10-07-05d2t03.flac:cc2b28131a62f4364c79eead4e869fb1
nmas10-07-05d2t04.flac:23f0923274b950e4694b2af1f1f793fd
nmas10-07-05d2t05.flac:0730981354b55241fed3bde89d9b6fc8
nmas10-07-05d2t06.flac:33c32947606639f58642ca8015507be7
nmas10-07-05d2t07.flac:4fbb4ef9a959402e114de80fc01cb8d2
nmas10-07-05d2t08.flac:7248ed3dea595ce7e201e5b9d8e5960a

Comments
Add Comment
Date User Comment