Browse Collections Artists Sources   Search Dates

Add Show    List Management    Help


Grateful Dead 07/21/94
Deer Creek Music Center, Noblesville, IN
Comments Add Comment    Source Collectors    Add to Collection    Add to Want List    History
Source # 31804 Other Sources
Entered by dr.unclear
Checksums st5 , shn-md5
Disc Counts 2 / 3
Media Size
Date Circulated
Date Added
11/28/2005
12/25/2005
Source Summary Source: A:D(48kHz) no mic info Transfer: D>ZA2>Samplitude2496>CD-r Transfer by Chris Larson 
  Archive
Source Information - Download Text | Download Zip
Grateful Dead
Noblesville, In
Deer Creek Amphitheater
7-21-94

Source:  A:D(48kHz) no mic info
Transfer: D>ZA2>Samplitude2496>CD-r

Set 1
Disc 1
1. Touch Of Grey
2. Greatest Story Ever Told
3. Jack-A-Roe
4. The Same Thing
5. Stagger Lee
6. Me & My Uncle
7. Mexicali Blues
8. Ramble On Rose
9. Music Never Stopped

Set 2
Disc 2
1. Women Are Smarter
2. If The Shoe Fits
3. Way To Go Home
4. Help On The Way
5. Slipknot
6. Franklins Tower
7. Drums

Disc 3
1. Space
2. Watchtower
3. Days Between
4. Good Lovin
5. Crowd

Encore:
6. Liberty

Tapes provided by Tom through Roger
Transfer by Chris Larson (BTWind[email protected])
seeded by http://tmnsp.net/

    length     expanded size   cdr  WAVE problems filename
    10:33.60      111802366    ---   h-   ---xx   gd94-07-21d1t01.shn
     4:02.33       42766462    ---   h-   ---xx   gd94-07-21d1t02.shn
     5:21.68       56784382    ---   h-   ---xx   gd94-07-21d1t03.shn
     7:35.35       80344366    ---   h-   ---xx   gd94-07-21d1t04.shn
     7:57.19       84187534    ---   h-   ---xx   gd94-07-21d1t05.shn
     3:10.40       33610126    ---   h-   ---xx   gd94-07-21d1t06.shn
     5:45.04       60867454    ---   h-   ---xx   gd94-07-21d1t07.shn
     8:28.56       89742958    ---   h-   ---xx   gd94-07-21d1t08.shn
     9:33.32      101152510    ---   h-   ---xx   gd94-07-21d1t09.shn
     2:53.04       30526654    ---   h-   ---xx   gd94-07-21d2t01.shn
     8:18.41       87943678    ---   h-   ---xx   gd94-07-21d2t02.shn
     6:38.38       70296622    ---   h-   ---xx   gd94-07-21d2t03.shn
     6:41.74       70910494    ---   h-   ---xx   gd94-07-21d2t04.shn
     3:06.01       32812798    ---   h-   ---xx   gd94-07-21d2t05.shn
    10:17.31      108911758    ---   h-   ---xx   gd94-07-21d2t06.shn
    14:06.41      149330878    ---   h-   ---xx   gd94-07-21d2t07.shn
    14:16.19      151043134    ---   h-   ---xx   gd94-07-21d3t01.shn
    16:58.64      179725774    ---   h-   ---xx   gd94-07-21d3t02.shn
     7:42.62       81642670    ---   h-   ---xx   gd94-07-21d3t03.shn
    12:51.08      136023262    ---   h-   ---xx   gd94-07-21d3t04.shn
     7:56.50       84083956    -b-   --   ---xx   gd94-07-21d3t05.shn
     8:44.25       92492344    -b-   --   ---xx   gd94-07-21d3t06.shn
   183:00.55     1937002180 B                     (totals for 22 files, 0.4965 overall compression ratio)
Show Checksums
st5
c9001d038ba0fbb4b5563b866e06f86c [shntool] gd94-07-21d1t01.shn
6be2978d79cb2cb37c4b3b62adca3fd5 [shntool] gd94-07-21d1t02.shn
2d5a4beb1e80212e3e8499c51922cad4 [shntool] gd94-07-21d1t03.shn
ebd6df35f7974f363fab68110e7da4d3 [shntool] gd94-07-21d1t04.shn
17e5c8f8cbb61c6f4d6a458ff0a82b49 [shntool] gd94-07-21d1t05.shn
fd9d3635c426bb7ce46f753ffeaeeefe [shntool] gd94-07-21d1t06.shn
8d5bacf67b577115e349e09f4bf6462e [shntool] gd94-07-21d1t07.shn
4ed903b9c4a75526a1042c9255ccbaa1 [shntool] gd94-07-21d1t08.shn
eaa01d0fa40758b66ed96f494674a720 [shntool] gd94-07-21d1t09.shn
341abdc55f5f009115eff19beaae2852 [shntool] gd94-07-21d2t01.shn
c457e9949decd972dee5939251553178 [shntool] gd94-07-21d2t02.shn
143f3b456fbef6c4e81f1def881e4297 [shntool] gd94-07-21d2t03.shn
30dcc9b8b5c2a0d9777badb9cd6192d5 [shntool] gd94-07-21d2t04.shn
a4fa9fa022d538470509b4b2b7035bb5 [shntool] gd94-07-21d2t05.shn
503e0ee9d88cf8f416495e17fba4aef0 [shntool] gd94-07-21d2t06.shn
03891b158ccc2927d55639ccb05a8603 [shntool] gd94-07-21d2t07.shn
8b25d711507e6a02a602fb7e66b5a2d7 [shntool] gd94-07-21d3t01.shn
0ae2c3ee50afffe0bed90335dc01bb52 [shntool] gd94-07-21d3t02.shn
089e24d3eabb4cf861dd67104c68732c [shntool] gd94-07-21d3t03.shn
c84ab96952c38340f68727887f4c340c [shntool] gd94-07-21d3t04.shn
a763b426654a3bef1f3bf27e8aad4ce6 [shntool] gd94-07-21d3t05.shn
afe37cf427958c36d18131072717bdf0 [shntool] gd94-07-21d3t06.shn
shn-md5
06a314b048ab44ef7f7dfee60715ad41 *gd94-07-21d1t01.shn
409ca46b41cc28425fb598427cdbfc3b *gd94-07-21d1t02.shn
2691609a2ecdbab42dc00db4dd77f086 *gd94-07-21d1t03.shn
1ae41f35e4314668228f62f894a5b345 *gd94-07-21d1t04.shn
1b4e364cd8fad684b499999674c7533e *gd94-07-21d1t05.shn
41394227336b2a233a22f7f8a4e78b47 *gd94-07-21d1t06.shn
19b8c1d7c1baa23c394891ae8bb5f175 *gd94-07-21d1t07.shn
dfc7393c9c39bf82f0379a3e244dbbcf *gd94-07-21d1t08.shn
d242d49f8024909b1786af4b03f14448 *gd94-07-21d1t09.shn
c7112f6131f7fa5b1c1ae6afe80f5db3 *gd94-07-21d2t01.shn
f0cdbc4cad8c03812485270d2af66bb5 *gd94-07-21d2t02.shn
e0ca0f814ffc4b410a9b524f6fcd0656 *gd94-07-21d2t03.shn
a80fe443e08c0f4244eecd58cd94c818 *gd94-07-21d2t04.shn
8c23f6d786f28ba8f4a5508c22e5ff62 *gd94-07-21d2t05.shn
bade404165281bbfeb5650c803397ab9 *gd94-07-21d2t06.shn
1dbe4bd9ccf23243629f59fca88b55cc *gd94-07-21d2t07.shn
cdbe49c97480789c6622e79673b44a1c *gd94-07-21d3t01.shn
a8aa8d34d8189a168a2e7de6efe4f53b *gd94-07-21d3t02.shn
683b78b6660ef777021c882e0fc4714b *gd94-07-21d3t03.shn
87ac1e25f5af34fc7fe3b2312494ce77 *gd94-07-21d3t04.shn
50004d5291b1bc8cfbb606adbac0a493 *gd94-07-21d3t05.shn
0812a1f5f6223ba9ae867ae489e5af40 *gd94-07-21d3t06.shn

Comments
Add Comment
Other Sources (comments)
SBD> ?> DAT> CD> Cool Edit>... (0) AUD (mic unk) >DAT>CD; via... (0) Shntool fix (by Chris... (0) Source: FOB Shure BG 4.0's... (0) Source: Nak 300's/cp4's >... (0) flac16; (OTS) AKG... (0) flac16; Taper: Greg... (0) flac16; Source:... (0) flac16/44.1 Source... (0)
Date User Comment
12/19/2005 Gary Corrected md5:
1ae41f35e4314668228f62f894a5b345 *gd94-07-21d1t04.shn
409ca46b41cc28425fb598427cdbfc3b *gd94-07-21d1t02.shn
2691609a2ecdbab42dc00db4dd77f086 *gd94-07-21d1t03.shn
06a314b048ab44ef7f7dfee60715ad41 *gd94-07-21d1t01.shn
1b4e364cd8fad684b499999674c7533e *gd94-07-21d1t05.shn
41394227336b2a233a22f7f8a4e78b47 *gd94-07-21d1t06.shn
19b8c1d7c1baa23c394891ae8bb5f175 *gd94-07-21d1t07.shn
dfc7393c9c39bf82f0379a3e244dbbcf *gd94-07-21d1t08.shn
d242d49f8024909b1786af4b03f14448 *gd94-07-21d1t09.shn
c7112f6131f7fa5b1c1ae6afe80f5db3 *gd94-07-21d2t01.shn
f0cdbc4cad8c03812485270d2af66bb5 *gd94-07-21d2t02.shn
e0ca0f814ffc4b410a9b524f6fcd0656 *gd94-07-21d2t03.shn
a80fe443e08c0f4244eecd58cd94c818 *gd94-07-21d2t04.shn
8c23f6d786f28ba8f4a5508c22e5ff62 *gd94-07-21d2t05.shn
bade404165281bbfeb5650c803397ab9 *gd94-07-21d2t06.shn
1dbe4bd9ccf23243629f59fca88b55cc *gd94-07-21d2t07.shn
cdbe49c97480789c6622e79673b44a1c *gd94-07-21d3t01.shn
a8aa8d34d8189a168a2e7de6efe4f53b *gd94-07-21d3t02.shn
683b78b6660ef777021c882e0fc4714b *gd94-07-21d3t03.shn
87ac1e25f5af34fc7fe3b2312494ce77 *gd94-07-21d3t04.shn
50004d5291b1bc8cfbb606adbac0a493 *gd94-07-21d3t05.shn
0812a1f5f6223ba9ae867ae489e5af40 *gd94-07-21d3t06.shn
01/16/2006 Gary Corrected Track list:
Disc 2
1. Tuning
2. Women Are Smarter
3. If The Shoe Fits
4. Way To Go Home
5. Help On The Way
6. Slipknot
7. Franklins Tower

Disc 3
1. Drums
2. Space
3. Watchtower
4. Days Between
5. Good Lovin

Encore:
6. Liberty