Browse Collections Artists Sources   Search Dates

Add Show    List Management    Help


Grateful Dead 07/20/94
Deer Creek Music Center, Noblesville, IN
Comments Add Comment    Source Collectors    Add to Collection    Add to Want List    History
Source # 31805 Other Sources
Entered by dr.unclear
Checksums st5 , shn-md5
Disc Counts 2 / 3
Media Size
Date Circulated
Date Added
11/27/2005
12/06/2005
Source Summary Source: A: Audio Technica 815a Shotguns>Panasonic sv250 (48kHz) Transfer: DAT>ZA2(S/PDIF)>Wavelab3.03>CD-r Transfer by Chris Larson 
  Archive
Source Information - Download Text | Download Zip
Grateful Dead
Noblesville, In
Deer Creek Amphitheater
7-20-94

Source:  A: Audio Technica 815a Shotguns>Panasonic sv250 (48kHz)
Transfer: DAT>ZA2(S/PDIF)>Wavelab3.03>CD-r

Set 1
Disc 1
1. Feel Like A Stranger
2. Peggy-O
3. BIODTL
4. High Time
5. Memphis Blues
6. Childhoods End
7. Don't Ease Me In

Set 2
Disc 2
1. Box Of Rain
2. Samba In The Rain
3. Looks Like Rain
4. Here Comes Sunshine
5. Corinna
6. Mathilda
7. Drums

Disc 3
1. Space
2. Uncle John's Band
3. I Need A Miracle
4. Morning Dew

Encore:
5. Johnny B. Goode

Transfer by Chris Larson ([email protected])
http://www.easystreet.com/~nswobooby    
Seeded by http://tmnsp.net/

length     expanded size   cdr  WAVE problems filename
     3:14.07       34238110    ---   h-   ---xx   gd94-07-20d1t01.shn
     9:38.00      101959246    ---   h-   ---xx   gd94-07-20d1t02.shn
     6:37.43       70131982    ---   h-   ---xx   gd94-07-20d1t03.shn
     3:19.08       35122462    ---   h-   ---xx   gd94-07-20d1t04.shn
     8:34.38       90759022    ---   h-   ---xx   gd94-07-20d1t05.shn
     9:27.09      100040014    ---   h-   ---xx   gd94-07-20d1t06.shn
     4:19.64       45838174    ---   h-   ---xx   gd94-07-20d1t07.shn
     3:27.04       36524606    -b-   h-   ---xx   gd94-07-20d1t08.shn
     3:27.54       36641854    ---   h-   ---xx   gd94-07-20d2t01.shn
     5:09.42       54606430    ---   h-   ---xx   gd94-07-20d2t02.shn
     8:15.53       87442702    ---   h-   ---xx   gd94-07-20d2t03.shn
     9:15.00       97902046    ---   h-   ---xx   gd94-07-20d2t04.shn
     6:18.71       66846238    ---   h-   ---xx   gd94-07-20d2t05.shn
    12:20.11      130561918    ---   h-   ---xx   gd94-07-20d2t06.shn
     3:50.33       40649662    ---   h-   ---xx   gd94-07-20d2t07.shn
    12:09.63      128743822    ---   h-   ---xx   gd94-07-20d2t08.shn
    13:21.69      141458734    ---   h-   ---xx   gd94-07-20d3t01.shn
    10:31.49      111423694    ---   h-   ---xx   gd94-07-20d3t02.shn
     4:44.32       50172910    ---   h-   ---xx   gd94-07-20d3t03.shn
    12:31.13      132507022    ---   h-   ---xx   gd94-07-20d3t04.shn
     1:22.11       14490718    ---   h-   ---xx   gd94-07-20d3t05.shn
     4:44.35       50179294    -b-   h-   ---xx   gd94-07-20d3t06.shn
   156:40.34     1658240660 B                     (totals for 22 files, 0.5277 overall compression ratio)

Show Checksums
st5
770188de628a0b83218dd002e570ac27 [shntool] gd94-07-20d1t01.shn
816282237459881dc48118158ebc33c1 [shntool] gd94-07-20d1t02.shn
77af7d667dc6216c426d2698036061fd [shntool] gd94-07-20d1t03.shn
7e1142ce7f5b8d331dbee34b9a7e6943 [shntool] gd94-07-20d1t04.shn
170e9e1165f2f71e18c66f59ce7716e7 [shntool] gd94-07-20d1t05.shn
3e815a59bf43db2aa152b0993737d2a1 [shntool] gd94-07-20d1t06.shn
4ca1b0d7eb093557f062eb9c780be303 [shntool] gd94-07-20d1t07.shn
bfdd3b78754b6855414ea17517b94733 [shntool] gd94-07-20d1t08.shn
5c7ec368bed07e18f286fa307ee98ed9 [shntool] gd94-07-20d2t01.shn
c9117b2247d9c3cce71acfb2f451bfb7 [shntool] gd94-07-20d2t02.shn
67e71185e021b57360f07b665241b22a [shntool] gd94-07-20d2t03.shn
078f70dbfe152109d2a68513169deba7 [shntool] gd94-07-20d2t04.shn
14f194a1a30056203c914d6e93051158 [shntool] gd94-07-20d2t05.shn
f2c4c0c7f218c334b16ec471556bf554 [shntool] gd94-07-20d2t06.shn
d0815ebcec02901cba6e17780159e8a6 [shntool] gd94-07-20d2t07.shn
1c225573e17def31a4b28f0aa06b9f97 [shntool] gd94-07-20d2t08.shn
29656fbb14423334301fd3b589d5f05e [shntool] gd94-07-20d3t01.shn
31d542f3ff820b3b450590cef5ea94a0 [shntool] gd94-07-20d3t02.shn
ab97bf7136bb41ec0087ecfcb7a02afe [shntool] gd94-07-20d3t03.shn
6074be8490107210bc669bb6726dc310 [shntool] gd94-07-20d3t04.shn
3ef123ee96ef37d25bef6a0b7035ad3b [shntool] gd94-07-20d3t05.shn
57efe8ae6f12eca2986bf25d63ff68cd [shntool] gd94-07-20d3t06.shn
shn-md5
7527adb9fce3325b95e6f52e6fcffcd7 *gd94-07-20d1t02.shn
dd0440f104901f8720becf7e79d3b744 *gd94-07-20d1t01.shn
cf436d63d3212444b68a0bff3c858c8d *gd94-07-20d1t03.shn
40f61f8a9d55d48498b299f2b69fa957 *gd94-07-20d1t04.shn
7fe9fe864e0d7f8e64451957896279b9 *gd94-07-20d1t05.shn
2a5a3b3a93b387a8103e701a4db8aab4 *gd94-07-20d1t06.shn
26d3b5396f4c74bfd3f18865eb2c64f6 *gd94-07-20d1t07.shn
fbd7ad99801c1561500fd3f5375304eb *gd94-07-20d1t08.shn
6637c06ec259f2ff7142f9580ede0abc *gd94-07-20d2t01.shn
26039478bd880bc043464c93d841806e *gd94-07-20d2t02.shn
74f9e31a17903b80f84d4f9a22bea9d7 *gd94-07-20d2t03.shn
2a952d1f61b00a04afd6257e0e2fcd57 *gd94-07-20d2t04.shn
9e059aa1b553e389a18c992a2ca2dff8 *gd94-07-20d2t05.shn
9fe0c7e3bfdd42dbe0fe31af320cdb3d *gd94-07-20d2t06.shn
ab49dc5fa0a0a6452da2681b0160ee2b *gd94-07-20d2t07.shn
443bbe4067e18793a3118405ed1c172c *gd94-07-20d2t08.shn
b17a3da551b61ee65b321a316c6e22bd *gd94-07-20d3t01.shn
85d156d6943349b6964ac0ae87a649dc *gd94-07-20d3t02.shn
2ff8b4a760511deb2753d29e2c609473 *gd94-07-20d3t03.shn
54f4599afb0a1e45a9249bbb59bf7440 *gd94-07-20d3t04.shn
e533ded52120e3ac80cc1bc6bb0da4bc *gd94-07-20d3t05.shn
a56838fff52c779aaffe725f729d1b63 *gd94-07-20d3t06.shn

Comments
Add Comment
Other Sources (comments)
SBD> DAT> WAV> CDR> WAV>... (5) flac16; Schoeps... (0) flac16; Taper: Greg... (0) flac16; Source:... (0) flac16/44.1 Source... (0) flac16/48kHz; taper... (1)
Date User Comment
12/19/2005 Gary Corrected md5:
7527adb9fce3325b95e6f52e6fcffcd7 *gd94-07-20d1t02.shn
dd0440f104901f8720becf7e79d3b744 *gd94-07-20d1t01.shn
cf436d63d3212444b68a0bff3c858c8d *gd94-07-20d1t03.shn
40f61f8a9d55d48498b299f2b69fa957 *gd94-07-20d1t04.shn
7fe9fe864e0d7f8e64451957896279b9 *gd94-07-20d1t05.shn
2a5a3b3a93b387a8103e701a4db8aab4 *gd94-07-20d1t06.shn
26d3b5396f4c74bfd3f18865eb2c64f6 *gd94-07-20d1t07.shn
fbd7ad99801c1561500fd3f5375304eb *gd94-07-20d1t08.shn
6637c06ec259f2ff7142f9580ede0abc *gd94-07-20d2t01.shn
26039478bd880bc043464c93d841806e *gd94-07-20d2t02.shn
74f9e31a17903b80f84d4f9a22bea9d7 *gd94-07-20d2t03.shn
2a952d1f61b00a04afd6257e0e2fcd57 *gd94-07-20d2t04.shn
9e059aa1b553e389a18c992a2ca2dff8 *gd94-07-20d2t05.shn
9fe0c7e3bfdd42dbe0fe31af320cdb3d *gd94-07-20d2t06.shn
ab49dc5fa0a0a6452da2681b0160ee2b *gd94-07-20d2t07.shn
443bbe4067e18793a3118405ed1c172c *gd94-07-20d2t08.shn
b17a3da551b61ee65b321a316c6e22bd *gd94-07-20d3t01.shn
85d156d6943349b6964ac0ae87a649dc *gd94-07-20d3t02.shn
2ff8b4a760511deb2753d29e2c609473 *gd94-07-20d3t03.shn
54f4599afb0a1e45a9249bbb59bf7440 *gd94-07-20d3t04.shn
e533ded52120e3ac80cc1bc6bb0da4bc *gd94-07-20d3t05.shn
a56838fff52c779aaffe725f729d1b63 *gd94-07-20d3t06.shn

Currently listed here: http://db.etree.org/shninfo_detail.php?shnid=31807 due to database error.