Browse Collections Artists Sources   Search Dates

Add Show    List Management    Help


Grateful Dead 03/30/94
The Omni, Atlanta, GA
Comments Add Comment    Source Collectors    Add to Collection    Add to Want List    History
Source # 31806 Other Sources
Entered by dr.unclear
Checksums st5 , shn-md5
Disc Counts 2 / 3
Media Size
Date Circulated
Date Added
11/26/2005
12/06/2005
Source Summary Source: S:D>ZA2>Samplitude2496>CD-R transfer by clarson ([email protected]
  Archive
Source Information - Download Text | Download Zip
Grateful Dead
Atlanta, GA
The Omni
3-30-94

Source: S:D>ZA2>Samplitude2496>CD-R
transfer by clarson ([email protected])
from http://tmnsp.net/
Set
Disc 1

1. Here Comes Sunshine
2. Feel Like A Stranger
3. Jack-A-Roe
4. Lazy River Road
5. El Paso
6. The Same Thing
7. New Speedway Boogie
8. Promised Land

Set 2
Disc 2

1. Scarlet Begonias
2. Fire On The Mountain
3. Playin' In The Band
4. Dark Star
5. Drums

Disc 3

1. Space
2. I Need A Miracle
3. Stella Blue
4. Sugar Magnolia

Encore (missing):
Liberty

    length     expanded size   cdr  WAVE problems filename
     7:33.47       80019790    ---   h-   ---xx   gd94-03-30d1t1.shn
    10:56.52      115840750    ---   h-   ---xx   gd94-03-30d1t2.shn
     7:07.30       75393406    ---   h-   ---xx   gd94-03-30d1t3.shn
     8:51.48       93781342    ---   h-   ---xx   gd94-03-30d1t4.shn
     8:02.08       85043662    ---   h-   ---xx   gd94-03-30d1t5.shn
     5:31.15       58423726    ---   h-   ---xx   gd94-03-30d1t6.shn
     9:38.57      102093310    ---   h-   ---xx   gd94-03-30d1t7.shn
     5:13.20       55260286    ---   h-   ---xx   gd94-03-30d1t8.shn
    11:13.60      118859304    -b-   --   ---xx   gd94-03-30d2t1.shn
    21:42.70      229838316    -b-   --   ---xx   gd94-03-30d2t2.shn
     9:36.26      101666460    -b-   --   ---xx   gd94-03-30d2t3.shn
    10:29.08      110974462    ---   h-   ---xx   gd94-03-30d2t4.shn
     5:05.34       53882014    ---   h-   ---xx   gd94-03-30d2t5.shn
    22:28.73      237958942    ---   h-   ---xx   gd94-03-30d3t1.shn
     5:10.03       54691102    ---   h-   ---xx   gd94-03-30d3t2.shn
    10:11.10      107804392    -b-   --   ---xx   gd94-03-30d3t3.shn
     9:05.34       96218014    ---   h-   ---xx   gd94-03-30d3t4.shn
   167:57.70     1777749278 B                     (totals for 17 files, 0.5207 overall compression ratio)
Show Checksums
st5
8f6356e201b8ec60baa8d00d84bdcaad [shntool] gd94-03-30d1t1.shn
03b976961b73a805d4c4bce2e01a5e05 [shntool] gd94-03-30d1t2.shn
e58a5267fdcc6b5dcad5ae0ee1307192 [shntool] gd94-03-30d1t3.shn
34fdb4581a0b75618db57e3bc5c6b423 [shntool] gd94-03-30d1t4.shn
3a7ac3433ce7f1060c6a3622476f8585 [shntool] gd94-03-30d1t5.shn
2fbcfd82f54953f4273adbffd65c0e74 [shntool] gd94-03-30d1t6.shn
42a4c73303cde4e68a1d74115d03bdd5 [shntool] gd94-03-30d1t7.shn
9bac46d4c491a41d80ce2ffb06782abf [shntool] gd94-03-30d1t8.shn
879442d9c871d0a04b5c0427a93dd941 [shntool] gd94-03-30d2t1.shn
17bca40fa80b60c167a55333d3752ff1 [shntool] gd94-03-30d2t2.shn
69fc8af6545c5f6deb4c97cfdb0bd528 [shntool] gd94-03-30d2t3.shn
ef4f60d095fb6bcacbdff798e35b86fc [shntool] gd94-03-30d2t4.shn
a5b9a32779e37df62a50668d8f1d97aa [shntool] gd94-03-30d2t5.shn
44d33886714bd6dacfb55307bce4b88d [shntool] gd94-03-30d3t1.shn
2e5ce5986589debda9f458bd49dfbd07 [shntool] gd94-03-30d3t2.shn
ed14d1016cdcdd30a68d3176f0575a70 [shntool] gd94-03-30d3t3.shn
196f41983178860065f85fce017a5ec1 [shntool] gd94-03-30d3t4.shn
shn-md5
49eff72eb49e51b238c74b6dc51aa73a *gd94-03-30d1t1.shn
a98bf1cc71dca53c6e3f0453330b1095 *gd94-03-30d1t2.shn
02ce5c04e6da57534b81a2686771a673 *gd94-03-30d1t3.shn
3e9641c1006cc8e612b4f9e5a774c8e5 *gd94-03-30d1t4.shn
c5cee212241817ddf7a15650b9953836 *gd94-03-30d1t5.shn
ac0f59e0c67355311b8b7ace5b4212e5 *gd94-03-30d1t6.shn
fb0e7adbe476bd349bb0a264100b7936 *gd94-03-30d1t7.shn
558999c168f9cf3dc6130ebb90ffe126 *gd94-03-30d1t8.shn
8ffa877e7531b07cf317d09609eb82df *gd94-03-30d2t5.shn
7e8ed13aea046781f6bb53eb561c3871 *gd94-03-30d2t2.shn
2ca019320697d8897f170616b6619e35 *gd94-03-30d2t3.shn
71cca928580e0baad4038d61d08a5d1e *gd94-03-30d2t4.shn
16bbb660374ba227d2ad20b230daab85 *gd94-03-30d2t1.shn
6de0f6d81c16ffa3e535323f97058916 *gd94-03-30d3t1.shn
944dba867b2167e86f6d50ace8030430 *gd94-03-30d3t2.shn
33c5613f3216325e9950777a1b84f405 *gd94-03-30d3t3.shn
348ee84d07d8a89986347a99304e81c0 *gd94-03-30d3t4.shn

Comments
Add Comment
Other Sources (comments)
SBD: DAT> ZA2>... (2) Recording Info: SBD -> Dat... (0) flac16; Source:... (0)
Date User Comment
12/19/2005 Gary Corrected md5:
Set 1:
49eff72eb49e51b238c74b6dc51aa73a *gd94-03-30d1t1.shn
a98bf1cc71dca53c6e3f0453330b1095 *gd94-03-30d1t2.shn
02ce5c04e6da57534b81a2686771a673 *gd94-03-30d1t3.shn
3e9641c1006cc8e612b4f9e5a774c8e5 *gd94-03-30d1t4.shn
c5cee212241817ddf7a15650b9953836 *gd94-03-30d1t5.shn
ac0f59e0c67355311b8b7ace5b4212e5 *gd94-03-30d1t6.shn
fb0e7adbe476bd349bb0a264100b7936 *gd94-03-30d1t7.shn
558999c168f9cf3dc6130ebb90ffe126 *gd94-03-30d1t8.shn

Set 2:
8ffa877e7531b07cf317d09609eb82df *gd94-03-30d2t5.shn
7e8ed13aea046781f6bb53eb561c3871 *gd94-03-30d2t2.shn
2ca019320697d8897f170616b6619e35 *gd94-03-30d2t3.shn
71cca928580e0baad4038d61d08a5d1e *gd94-03-30d2t4.shn
16bbb660374ba227d2ad20b230daab85 *gd94-03-30d2t1.shn
6de0f6d81c16ffa3e535323f97058916 *gd94-03-30d3t1.shn
944dba867b2167e86f6d50ace8030430 *gd94-03-30d3t2.shn
33c5613f3216325e9950777a1b84f405 *gd94-03-30d3t3.shn
348ee84d07d8a89986347a99304e81c0 *gd94-03-30d3t4.shn

Currently listed here: http://db.etree.org/shninfo_detail.php?shnid=31828 due to database error.