Browse Collections Artists Sources   Search Dates

Add Show    List Management    Help


Medeski Martin & Wood 12/08/05
Ziggy's, Winston Salem, NC
Comments Add Comment    Source Collectors    Add to Collection    Add to Want List    History
Source # 31849 Other Sources
Entered by duggy
Checksums ffp
Disc Counts 2 / 2
Media Size
Date Circulated
Date Added
12/14/2005
01/06/2006
Source Summary flac16; Neumann ak40 > lc3 > km100 > Lunatec V3 > da-p1 @ 44.1 (fob @ the drink rail, ortf); da-20mkII > audiophile 24/96 > wavelab 5.01b > cd wave > flac (level 6); Taped by Mark Skeens; Transferred by Gordon Wilson 
Source Information - Download Text | Download Zip
Medeski Martin & Wood
12-08-2005
Ziggy's
Winston-Salem, NC

source:   Neumann ak40 > lc3 > km100 > Lunatec V3 > da-p1 @ 44.1
location: fob @ the drink rail, ortf
transfer: da-20mkII > audiophile 24/96 > wavelab 5.01b > cd wave > flac (level 6)

taped by Mark Skeens
transferred by Gordon Wilson

set one/disc one

1. Improv >
2. Improv >
3. Improv >
4. Mami Gato >
5. What'd I Say
6. bass solo >
7. Sasa

set two/disc two

1. Egde Mi O > Drums >
2. Egde Mi O > The Letter
3. After the Onset
4. New New Orleans >
5. Lonely Avenue
6. Paris
7. Nocturne

disc three

1. Crosstown Traffic

encore:
2. Rowboat

notes:
thanks to Mark for the master and the track times.
fades added at the beginning and end of sets with wavelab 5.01b
gain raised + 3db with wavelab 5.01b
sector boundary's confirmed with shntool v2.0.3

ffp:
mmw2005-12-08d1t01.flac:3b0812073add1bfb6d8075a07f902cb9
mmw2005-12-08d1t02.flac:8dadff4c19f1dde11f3f569f15b0a28c
mmw2005-12-08d1t03.flac:3bf7665d935cc1f9a9f335f17d0204eb
mmw2005-12-08d1t04.flac:df7157243f6f6647dd8f4b870be080df
mmw2005-12-08d1t05.flac:8d54c967e9b5412cb26de60d28598b46
mmw2005-12-08d1t06.flac:1de4bd81332768331ac0f296f4a5a5ef
mmw2005-12-08d1t07.flac:a8ab9b675baedc974b86115dabf9da74
mmw2005-12-08d2t01.flac:9e48317ab4ad296c79922ba43a898bc6
mmw2005-12-08d2t02.flac:f63e4eb1c4d0eaaefc3f17dd680edb11
mmw2005-12-08d2t03.flac:9bf9d010b332a5c5072ec1b710500b87
mmw2005-12-08d2t04.flac:327c65b7460c679215d82ac07d4224e6
mmw2005-12-08d2t05.flac:a402d51e38a3d1eb9d1830dccd9f943a
mmw2005-12-08d2t06.flac:fd04d54b1945bfbc3b992b488017b56b
mmw2005-12-08d2t07.flac:0ab33bb990ff6f0e19b6cd36c778be8a
mmw2005-12-08d3t01.flac:74d2821cc720d7120d1b3b963e12da08
mmw2005-12-08d3t02.flac:0f7982b70a57369706d1c3dd3be19792

shntool:
    length     expanded size   cdr  WAVE problems filename
     7:54.48       83726540    ---   --   ---xx   mmw2005-12-08d1t01.flac
     8:52.68       94004780    ---   --   ---xx   mmw2005-12-08d1t02.flac
    13:16.02      140419148    ---   --   ---xx   mmw2005-12-08d1t03.flac
    10:57.45      116000684    ---   --   ---xx   mmw2005-12-08d1t04.flac
     7:07.50       75440444    ---   --   ---xx   mmw2005-12-08d1t05.flac
     2:45.06       29120156    ---   --   ---xx   mmw2005-12-08d1t06.flac
     8:14.70       87306284    ---   --   ---xx   mmw2005-12-08d1t07.flac
    14:46.60      156431564    ---   --   ---xx   mmw2005-12-08d2t01.flac
     5:49.09       61584812    ---   --   ---xx   mmw2005-12-08d2t02.flac
     8:37.00       91198844    ---   --   ---xx   mmw2005-12-08d2t03.flac
     9:46.30      103441004    ---   --   ---xx   mmw2005-12-08d2t04.flac
    13:06.72      138819788    ---   --   ---xx   mmw2005-12-08d2t05.flac
     8:29.63       89935820    ---   --   ---xx   mmw2005-12-08d2t06.flac
     7:33.22       79960988    ---   --   ---xx   mmw2005-12-08d2t07.flac
    14:21.35      151962764    ---   --   ---xx   mmw2005-12-08d3t01.flac
     7:22.44       78072332    ---   --   ---xx   mmw2005-12-08d3t02.flac
   149:02.24        1504.35 MB                    (totals for 16 files, 0.5128 overall compression ratio)
Show Checksums
ffp
mmw2005-12-08d1t01.flac:3b0812073add1bfb6d8075a07f902cb9
mmw2005-12-08d1t02.flac:8dadff4c19f1dde11f3f569f15b0a28c
mmw2005-12-08d1t03.flac:3bf7665d935cc1f9a9f335f17d0204eb
mmw2005-12-08d1t04.flac:df7157243f6f6647dd8f4b870be080df
mmw2005-12-08d1t05.flac:8d54c967e9b5412cb26de60d28598b46
mmw2005-12-08d1t06.flac:1de4bd81332768331ac0f296f4a5a5ef
mmw2005-12-08d1t07.flac:a8ab9b675baedc974b86115dabf9da74
mmw2005-12-08d2t01.flac:9e48317ab4ad296c79922ba43a898bc6
mmw2005-12-08d2t02.flac:f63e4eb1c4d0eaaefc3f17dd680edb11
mmw2005-12-08d2t03.flac:9bf9d010b332a5c5072ec1b710500b87
mmw2005-12-08d2t04.flac:327c65b7460c679215d82ac07d4224e6
mmw2005-12-08d2t05.flac:a402d51e38a3d1eb9d1830dccd9f943a
mmw2005-12-08d2t06.flac:fd04d54b1945bfbc3b992b488017b56b
mmw2005-12-08d2t07.flac:0ab33bb990ff6f0e19b6cd36c778be8a
mmw2005-12-08d3t01.flac:74d2821cc720d7120d1b3b963e12da08
mmw2005-12-08d3t02.flac:0f7982b70a57369706d1c3dd3be19792

Comments
Add Comment
Date User Comment
01/06/2006 duggy Updated the name of d2t03 from 'Shack Theme' to the recently announced 'After the Onset' (named by Billy on 12/29/2005).