Browse Collections Artists Sources   Search Dates

Add Show    List Management    Help


Grateful Dead 12/05/81
Market Square Arena, Indianapolis, IN
Comments Add Comment    Source Collectors    Add to Collection    Add to Want List    History
Source # 31945 Other Sources
Entered by Matt Vernon
Checksums flac-md5 , ffp
Disc Counts 2 / 3
Media Size
Date Circulated
Date Added
12/23/2005
12/25/2005
Source Summary flac16; Recording by Doug Mow. Nak 700 shotguns (mics pointed at stacks) > Sony TC D5M > Maxell XLIIS Transfer: D5 > Edirol UA5 custom Oade mod > USB > IBM R40 > Soundforge > WAV > CDR > EAC > WinXP Pro > Flac Frontend > FLAC16. Transferred By Doug Mow EAC, conversion & upload to bt.etree.org by Alex Ford 12/23/05 
  Archive
Source Information - Download Text | Download Zip
Grateful Dead - 12/05/81      
Market Square Arena  
Indianapolis, IN  

Source: Nak 700 shotguns (mics pointed at stacks) > Sony TC D5M > Maxell XLIIS

Location: behind soundboard, right side, over entrance to the floor

Taper: Doug Mow

Transfer: D5 > Edirol UA5 custom Oade mod > USB > IBM R40 > Soundforge > WAV > CDR > EAC > WinXP Pro > Flac Frontend > FLAC16.

Transferred By Doug Mow
EAC, conversion & upload to bt.etree.org by Alex Ford 12/23/05
Sbe's checked with TLH and there were none.

Set 1:
d1t01 Alabama Getaway >
d1t02 Promised Land
d1t03 Friend Of The Devil >
d1t04 C.C. Rider
d1t05 Cumberland Blues >
d1t06 El Paso
d1t07 Ramble On Rose
d1t08 Passenger
d1t09 Bird Song >
d1t10 Let It Grow

Set 2:
d2t01 Shakedown Street >
d2t02 Lost Sailor >
d2t03 Saint of Circumstance
d2t04 Big Railroad Blues >
d2t05 Playing In The Band >
d2t06 Drums >
d3t01 Space >
d3t02 The Wheel >
d3t03 Playing In The Band >
d3t04 Stella Blue >
d3t05 Sugar Magnolia

Encore:
d3t06 One More Saturday Night


SHNTOOL LEN OUTPUT

    length     expanded size    cdr  WAVE problems  fmt   ratio  filename
     4:52.02       51513548 B   ---   --   ---xx   flac  0.5381  gd81-12-05d1t01.flac
     4:17.14       45367772 B   ---   --   ---xx   flac  0.5656  gd81-12-05d1t02.flac
     8:04.21       85427036 B   ---   --   ---xx   flac  0.5356  gd81-12-05d1t03.flac
     6:45.25       71500844 B   ---   --   ---xx   flac  0.5563  gd81-12-05d1t04.flac
     5:13.36       55297916 B   ---   --   ---xx   flac  0.5470  gd81-12-05d1t05.flac
     4:47.28       50692700 B   ---   --   ---xx   flac  0.5339  gd81-12-05d1t06.flac
     8:16.27       87557948 B   ---   --   ---xx   flac  0.5176  gd81-12-05d1t07.flac
     5:11.12       54888668 B   ---   --   ---xx   flac  0.5625  gd81-12-05d1t08.flac
    10:29.20      111002684 B   ---   --   ---xx   flac  0.5240  gd81-12-05d1t09.flac
    10:31.09      111329612 B   ---   --   ---xx   flac  0.5551  gd81-12-05d1t10.flac
    13:03.27      138184748 B   ---   --   ---xx   flac  0.5404  gd81-12-05d2t01.flac
     7:10.73       76023740 B   ---   --   ---xx   flac  0.5225  gd81-12-05d2t02.flac
     6:43.50       71206844 B   ---   --   ---xx   flac  0.5653  gd81-12-05d2t03.flac
     4:37.26       48923996 B   ---   --   ---xx   flac  0.5649  gd81-12-05d2t04.flac
    10:14.44      108413132 B   ---   --   ---xx   flac  0.5318  gd81-12-05d2t05.flac
     6:02.32       63932108 B   ---   --   ---xx   flac  0.4862  gd81-12-05d2t06.flac
     5:36.73       59442140 B   ---   --   ---xx   flac  0.4416  gd81-12-05d3t01.flac
     9:41.12      102516668 B   ---   --   ---xx   flac  0.5111  gd81-12-05d3t02.flac
     2:54.26       30754796 B   ---   --   ---xx   flac  0.5172  gd81-12-05d3t03.flac
     8:50.54       93619052 B   ---   --   ---xx   flac  0.4788  gd81-12-05d3t04.flac
     9:19.32       98682908 B   ---   --   ---xx   flac  0.5514  gd81-12-05d3t05.flac
     4:45.32       50349308 B   ---   --   ---xx   flac  0.5597  gd81-12-05d3t06.flac
   157:28.00     1666628168 B                            0.5312  (22 files)
Show Checksums
flac-md5
9a6e1b755d2fd71a3535cb6106c59bba *gd81-12-05d1t01.flac
fda9b70bc856390f5a32a9c1626decb8 *gd81-12-05d1t02.flac
5547369272eca27b5dc11eb501d9b7aa *gd81-12-05d1t03.flac
b14f259e6cba07b240cfdc78059f20df *gd81-12-05d1t04.flac
56bf673c12479138d0486c559e6f795f *gd81-12-05d1t05.flac
68f2a40d63fd64ff906685164c1a37fd *gd81-12-05d1t06.flac
ca213653c059cc844160c24b42b909de *gd81-12-05d1t07.flac
30bc967746ab729613b26b0ab852d5dc *gd81-12-05d1t08.flac
e194e01d8a33e20853b1f5cdba92f11d *gd81-12-05d1t09.flac
331da09d1d205abf037c8187e9f27cad *gd81-12-05d1t10.flac
912de76c711bf80c53cde3d0e04fb9c2 *gd81-12-05d2t01.flac
6dc9d0b3f375286feb71b631c5fe94a4 *gd81-12-05d2t02.flac
2c6ee3ed8d766a61885dce00268733d1 *gd81-12-05d2t03.flac
9b43ddf0d33391addfb3922ddc31d3c4 *gd81-12-05d2t04.flac
c052cea55009854f984ea853b54cdd6f *gd81-12-05d2t05.flac
627467442319c4d2af8a200ecb692b25 *gd81-12-05d2t06.flac
91590361a4d8e8256a5bdcbedfe71c5f *gd81-12-05d3t01.flac
04d0f981e2085fa0c6772f97abfae984 *gd81-12-05d3t02.flac
77a8484dcf5e179b17d07bf32769ebff *gd81-12-05d3t03.flac
cc6ef20e621d34b1cbfcbdfed40be55f *gd81-12-05d3t04.flac
bdcfec1c5aa56161cde8bb8e96fd6d48 *gd81-12-05d3t05.flac
ed3828af7d0b89eae71f72609fda4247 *gd81-12-05d3t06.flac
ffp
gd81-12-05d1t01.flac:7f702546343ed377b6324152047f3690
gd81-12-05d1t02.flac:93ce1730b00fd34a7dae83e11f46d98f
gd81-12-05d1t03.flac:2dbd5958c1909e535e6a87f76dad0e3e
gd81-12-05d1t04.flac:7dd3f6812c055466b228f4e6f347dea0
gd81-12-05d1t05.flac:2a88ee7d8c0bfc34ba9bb9a8950b4e4b
gd81-12-05d1t06.flac:969f9d0c255709f2069e7319fe4017a3
gd81-12-05d1t07.flac:0deb0908d41c4ffe4e63b2e770134368
gd81-12-05d1t08.flac:b73302ec43e7595834017d68e4fcfd95
gd81-12-05d1t09.flac:3d13efdd05582ffc9a6f3f938cfbe363
gd81-12-05d1t10.flac:2a0f4a0674947b649e9752620b380e13
gd81-12-05d2t01.flac:50ebeaefbe5bef51136451ad0554c850
gd81-12-05d2t02.flac:298d1484309c11ef1b8b38bc6cd0fca6
gd81-12-05d2t03.flac:856680bd561d4717149dc158ec235a36
gd81-12-05d2t04.flac:caac00de2d4ccb37203bb3c3e1ad84ce
gd81-12-05d2t05.flac:d76aa911c1fcdf5c5080851a1b14a6a3
gd81-12-05d2t06.flac:0f5d76634cb351c7a4fca6dacaf49d4d
gd81-12-05d3t01.flac:b33dac6074a1eed8f26a00e2430cad02
gd81-12-05d3t02.flac:c430435e07776dccc151b47ed6c3e9ec
gd81-12-05d3t03.flac:134f5c4d053763ba363a0c12c0999bf6
gd81-12-05d3t04.flac:7020139b478e873796cae011b6b5819c
gd81-12-05d3t05.flac:5785045e13bf5e03577b36c04da2f406
gd81-12-05d3t06.flac:43a289601220522fe74dbe794d7ef9ef

Comments
Add Comment
Other Sources (comments)
Master Soundboard Cassette... (1) flac16; Recording... (2) flac16; Updated... (0) flac16; Recording... (0) flac24; AUD: Beyers... (1) flac16; AUD: Beyers... (1)
Date User Comment