Browse Collections Artists Sources   Search Dates

Add Show    List Management    Help


Grateful Dead 04/04/91
The Omni, Atlanta, GA
Comments Add Comment    Source Collectors    Add to Collection    Add to Want List    History
Source # 31954 Other Sources
Entered by Matt Vernon
Checksums flac-md5 , ffp
Disc Counts 2 / 3
Media Size
Date Circulated
Date Added
12/15/2005
12/25/2005
Source Summary flac16; record: Audio Technica 835a's>b18's>D5proII ots transfer: Cassette Master>Aiwa F810>M Audio Audiophile 24/96 @44.1>Wavelab 5>cdwav>flac record & transfer by cdipietro 
  Archive
Source Information - Download Text | Download Zip
Grateful Dead
The Omni
Atlanta, GA
4/4/91 - Thursday

record: Audio Technica 835a's>b18's>D5proII ots
transfer: Cassette Master>Aiwa F810>M Audio Audiophile 24/96 @44.1>Wavelab 5>cdwav>flac
record& transfer by cdipietro

Disc One ~ Set One

01. Tune Up
02. Let The Good Times Roll * ^
03. Feel Like A Stranger ^
04. They Love Each Other
05. Walkin' Blues
06. Ramble On Rose
07. Stuck Inside Of Mobile With The Memphis Blues Again
08. High Time
09. The Promised Land

Disc Two ~ Set Two

01. Tune Up
02. Help On The Way >
03. Slipknot! >
04. Franklin's Tower
05. Estimated Prophet
06. He's // Gone >
07. Drums >

Disc Three ~ Set Two continued

01. Space >
02. I Need A Miracle >
03. Standing On The Moon >
04. Good Lovin'
Encore
05. U.S. Blues

Notes:
* = PA off for the first for seconds of LTGTR
^ = Crazy Tripping Hippy Screaming in the tapers section
cassette flip during He's Gone

    length     expanded size   cdr  WAVE problems filename
     1:23.46       14749436    ---   --   ---xx   gd1991-04-04d1t01.flac
     4:37.02       48867548    ---   --   ---xx   gd1991-04-04d1t02.flac
    10:02.55      106322204    ---   --   ---xx   gd1991-04-04d1t03.flac
     8:32.26       90377996    ---   --   ---xx   gd1991-04-04d1t04.flac
     8:00.11       84697916    ---   --   ---xx   gd1991-04-04d1t05.flac
     8:24.39       88997372    ---   --   ---xx   gd1991-04-04d1t06.flac
     9:54.07      104798108    ---   --   ---xx   gd1991-04-04d1t07.flac
     6:30.28       68861900    ---   --   ---xx   gd1991-04-04d1t08.flac
     4:33.05       48169192    -b-   --   ---xx   gd1991-04-04d1t09.flac
     2:40.11       28249916    ---   --   ---xx   gd1991-04-04d2t01.flac
     3:04.26       32518796    ---   --   ---xx   gd1991-04-04d2t02.flac
     9:08.12       96695468    ---   --   ---xx   gd1991-04-04d2t03.flac
    13:34.15      143624924    ---   --   ---xx   gd1991-04-04d2t04.flac
    12:24.27      131305148    ---   --   ---xx   gd1991-04-04d2t05.flac
    16:14.23      171867740    ---   --   ---xx   gd1991-04-04d2t06.flac
     7:48.39       82647332    -b-   --   ---xx   gd1991-04-04d2t07.flac
     5:58.27       63215228    -b-   --   ---xx   gd1991-04-04d3t01.flac
     5:07.47       54265388    ---   --   ---xx   gd1991-04-04d3t02.flac
     8:28.21       89660636    ---   --   ---xx   gd1991-04-04d3t03.flac
     9:18.20       98478284    ---   --   ---xx   gd1991-04-04d3t04.flac
     5:58.22       63202988    ---   --   ---xx   gd1991-04-04d3t05.flac
   161:42.59     1711573520 B                     (totals for 21 files, 0.5533 overall compression ratio)
Show Checksums
flac-md5
93ff6b9c60ce319444d2d3e046449e5c *gd1991-04-04d1t01.flac
137088bdab6fa6892a79f26d4676d38b *gd1991-04-04d1t02.flac
4134c3945ee4e6e467cf8411dc27f63e *gd1991-04-04d1t03.flac
277996fa522d87f1fd857e07ffbbccc1 *gd1991-04-04d1t04.flac
90e0c72b3d3777628e6ef2bdaf877973 *gd1991-04-04d1t05.flac
fc8181fe9181a1249fe46a9913454451 *gd1991-04-04d1t06.flac
489dbf671a0fb9edb6f3c105257f6814 *gd1991-04-04d1t07.flac
65b432d60559923ba5255aa6338b22a8 *gd1991-04-04d1t08.flac
1085504d7ccd582cd69d99ec0f512748 *gd1991-04-04d1t09.flac
5c8e31ae564bf2f08408aebf850c7aea *gd1991-04-04d2t01.flac
46a0cb065e8c0665b9413ea77eb123a7 *gd1991-04-04d2t02.flac
8f6231e7cca1d00f96d1b8b3a604c13f *gd1991-04-04d2t03.flac
ac87fd5b3abc5e3dcf8846c90b6a1eac *gd1991-04-04d2t04.flac
6db503a25e3b37bf4f3dda33500583b2 *gd1991-04-04d2t05.flac
6813f35495495d695e8e2df7d10adf96 *gd1991-04-04d2t06.flac
a7c0cdf99af82e1d85265614a77c76f8 *gd1991-04-04d2t07.flac
7a68a34eb8661d8cf514f5c3141a2d2b *gd1991-04-04d3t01.flac
999a0eb91bc65ace1a05c3538c840797 *gd1991-04-04d3t02.flac
ce093cd7ea48e8cd07d2e5ef4007a8f4 *gd1991-04-04d3t03.flac
af4e28cd6678860046f34cb3e1d3bcbf *gd1991-04-04d3t04.flac
e42cf512fadfbca5050eb33b0a5598cd *gd1991-04-04d3t05.flac
ffp
gd1991-04-04d1t01.flac:51a61a8924f27ba1c93ff85dc1d221fc
gd1991-04-04d1t02.flac:0464e54c0e5dd14c2a19e9605eadff4a
gd1991-04-04d1t03.flac:63c9f94c6da24f14b1f301e97eb54081
gd1991-04-04d1t04.flac:7f2f6f3dec7e764facc330d4a98a65b5
gd1991-04-04d1t05.flac:8c3390dd67d0f5fbf5cbccc9caaebfb9
gd1991-04-04d1t06.flac:c47dba3679d87662eca83c87d963b40e
gd1991-04-04d1t07.flac:f3b72ad0fa739c1a2efcd48d4510c9a2
gd1991-04-04d1t08.flac:f000b5bcaf339e35edd9fb4d3af87c11
gd1991-04-04d1t09.flac:f5ccc9906f01c913390f5aca23b6631e
gd1991-04-04d2t01.flac:308a1715367f56070a11bc7ae0090f3c
gd1991-04-04d2t02.flac:c244b425c65ed63b3139a271ffc331c4
gd1991-04-04d2t03.flac:32196bc13b47e946f140899d33b7182c
gd1991-04-04d2t04.flac:647658f48dc3acd2cfebbcc9dd479b0f
gd1991-04-04d2t05.flac:52ac9252ce836e5f7c5ac49eb205740a
gd1991-04-04d2t06.flac:44fb7485718d372ab30686d9964ddb0c
gd1991-04-04d2t07.flac:0a017042e9bb978951e0d0faaca05e5d
gd1991-04-04d3t01.flac:a3bb1b38f8355874d8d3878899fd354e
gd1991-04-04d3t02.flac:07199dbd1ebe5dd39a78c8ed430179ce
gd1991-04-04d3t03.flac:922a4db2b2825752a41df546c4982b60
gd1991-04-04d3t04.flac:6bc0788a281195de2079f999bda61fd9
gd1991-04-04d3t05.flac:af55650d4879041e6f5aeac704d63adc

Comments
Add Comment
Other Sources (comments)
FOB> AKGc1000s>Sony... (0) patched shnID 15548, FOB>... (0) flac16; FOB Digital... (0) flac16; Recording... (0) flac16; Taper: Greg... (0) flac24; Master... (0) flac16; Master... (0) flac16; Master... (0) flac24; Master... (0) flac16/48kHz; Set 2,... (0) flac16/48kHz; Set 2... (0)
Date User Comment
01/11/2006 Gary d3t01 is US Blues. Space is missing from this.

The track listing for this should read:
01. U.S. Blues
02. I Need A Miracle >
03. Standing On The Moon >
04. Good Lovin'
Encore
05. U.S. Blues

This probably shouldn't circulate.