Browse Collections Artists Sources   Search Dates

Add Show    List Management    Help


Grateful Dead 12/05/79
Uptown Theater, Chicago, IL
Comments Add Comment    Source Collectors    Add to Collection    Add to Want List    History
Source # 31959 Other Sources
Entered by Matt Vernon
Checksums flac-md5 , ffp
Disc Counts 1 / 2
Media Size
Date Circulated
Date Added
12/25/2005
12/25/2005
Source Summary flac16; SBD (set 2 only) -> Cassette Master -> Dat (44.1k) Transferred and Remastered By Charlie Miller  
  Archive
Source Information - Download Text | Download Zip
Grateful Dead - December 5, 1979
Uptown Theatre - Chicago, IL
**2nd Set Only**

Recording Info:
SBD -> Cassette Master -> Dat (44.1k)

Transfer Info:
Dat (Sony D8) -> VX Pocket v440 -> Sharp MV10 -> Samplitude Professional v8.01 -> CD -> EAC -> FLAC
(2 Discs Audio / 1 Disc FLAC)

All Transfers and Mastering By Charlie Miller
[email protected]
March 21, 2006

Patch Info:
Short patches in Shakedown Street, The Other One, Bertha and all of
Ship Of Fools from Cassette AUD pulled from archive.org.

Notes:
-- Disc change is seamless.
-- I named the tracks as d2 and d3 as to not confuse things with the 1st Set.
-- 2nd Encore (Don't Ease Me In) is missing.
-- Thanks to Jacque for being patient with me while I worked on this.
-- I forgot to make data discs which is why I had to use EAC.

Set 2:
d2t01 - Shakedown Street ->
d2t02 - Samson And Delilah
d2t03 - Ship Of Fools
d2t04 - He's Gone ->
d2t05 - The Other One ->
d2t06 - Drums ->
d3t01 - Space ->
d3t02 - Black Peter ->
d3t03 - I Need A Miracle ->
d3t04 - Bertha ->
d3t05 - Good Lovin'

Encore:
d3t06 - Johnny B. Goode


SHNTOOL OUTPUT:
    length     expanded size   cdr  WAVE  probs   filename
    15:54.54     168412652     ---   --    ---    gd79-12-05d2t01.wav
     8:09.61      86403116     ---   --    ---    gd79-12-05d2t02.wav
    10:27.12     110631068     ---   --    ---    gd79-12-05d2t03.wav
    16:51.12     178368668     ---   --    ---    gd79-12-05d2t04.wav
    17:26.74     184688492     ---   --    ---    gd79-12-05d2t05.wav
     3:51.22      40800188     ---   --    ---    gd79-12-05d2t06.wav
     4:34.53      48458300     ---   --    ---    gd79-12-05d3t01.wav
    12:19.31     130432556     ---   --    ---    gd79-12-05d3t02.wav
     3:17.23      34804940     ---   --    ---    gd79-12-05d3t03.wav
     6:43.73      71260940     ---   --    ---    gd79-12-05d3t04.wav
     8:00.69      84834332     ---   --    ---    gd79-12-05d3t05.wav
     4:12.01      44455196     ---   --    ---    gd79-12-05d3t06.wav
   111:49.35    1183550448 B                      (totals for 12 files)
Show Checksums
flac-md5
a804bacd58798a6bef352574fe377c28 *gd79-12-05d2t01.flac
5936647ee700af43d489f237ee02c8f3 *gd79-12-05d2t02.flac
52febb353c7dca4400ecbb6dad3c01d0 *gd79-12-05d2t03.flac
806f6e2905826bb22018c253fe0bdb46 *gd79-12-05d2t04.flac
2061413bc79bba574ff3f61e408df82e *gd79-12-05d2t05.flac
40b5f9e80ecb9ef79b2588fdb78d9e36 *gd79-12-05d2t06.flac
b7bd2f5f7df746179a777a5f60e0b3ab *gd79-12-05d3t01.flac
c0f916a6a37c5edb86abf32262d2ce00 *gd79-12-05d3t02.flac
695c90e447f8696b00a50882510f2a3f *gd79-12-05d3t03.flac
f168b367ac87e34f72ec30994dedc7de *gd79-12-05d3t04.flac
f5e0dbd79c0424da734c63caf02a088a *gd79-12-05d3t05.flac
6042c83d08ff4b110a6e4b9171c78d87 *gd79-12-05d3t06.flac
ffp
gd79-12-05d2t01.flac:f0c4604cc80777901c84d16b57e1b4d7
gd79-12-05d2t02.flac:7e76e3bf28548e0d5f8998a52c6ee58f
gd79-12-05d2t03.flac:fb3bd9e243bbc40c0838d146b181bea2
gd79-12-05d2t04.flac:12748181eec9dcea387c6c1ff6583c74
gd79-12-05d2t05.flac:fccbca46c875b0da0e1c2e5ed346029f
gd79-12-05d2t06.flac:4c1b13c2c4d7c2d3d838fa05dba1d3bb
gd79-12-05d3t01.flac:701bcf5f3c50e2a85e3e68a4a2479802
gd79-12-05d3t02.flac:1a4b42366121d284ad782d38cae3adda
gd79-12-05d3t03.flac:30f155a6a55eb47c8922286342295f3c
gd79-12-05d3t04.flac:99f7add5493bfb4f80d4a9719979a3cf
gd79-12-05d3t05.flac:dfab5f368c6744a21ac98df294b2f0d2
gd79-12-05d3t06.flac:28d2cc2f9969f7ba3c54c1463aa6a273

Comments
Add Comment
Other Sources (comments)
2nd set minus ship of fools... (1) MAC (Unknown equipment) >... (1) flac16; composite of... (0) flac16; Recording by... (0) flac16; Recording... (0) flac16:Matrix by... (0) flac16; Recorded By... (0)
Date User Comment
06/26/2006 The info text has incorrect shntool output for this seed. Below are correct shntool output for both the flacs & wavs, note the sector boundary issues for the first track of each disc. Yes my md5sums match the database here.

length expanded size cdr WAVE problems filename
15:54.52 168407760 -b- -- ---xx gd79-12-05d2t01.flac
8:09.61 86403116 --- -- ---xx gd79-12-05d2t02.flac
10:27.12 110631068 --- -- ---xx gd79-12-05d2t03.flac
16:51.12 178368668 --- -- ---xx gd79-12-05d2t04.flac
17:26.74 184688492 --- -- ---xx gd79-12-05d2t05.flac
3:51.22 40800188 --- -- ---xx gd79-12-05d2t06.flac
4:34.51 48453408 -b- -- ---xx gd79-12-05d3t01.flac
12:19.31 130432556 --- -- ---xx gd79-12-05d3t02.flac
3:17.23 34804940 --- -- ---xx gd79-12-05d3t03.flac
6:43.73 71260940 --- -- ---xx gd79-12-05d3t04.flac
8:00.69 84834332 --- -- ---xx gd79-12-05d3t05.flac
4:12.01 44455196 --- -- ---xx gd79-12-05d3t06.flac
111:49.31 1183540664 B (totals for 12 files, 0.5995 overall compression ratio)




length expanded size cdr WAVE problems filename
15:54.52 168407760 -b- -- ----- gd79-12-05d2t01.wav
8:09.61 86403116 --- -- ----- gd79-12-05d2t02.wav
10:27.12 110631068 --- -- ----- gd79-12-05d2t03.wav
16:51.12 178368668 --- -- ----- gd79-12-05d2t04.wav
17:26.74 184688492 --- -- ----- gd79-12-05d2t05.wav
3:51.22 40800188 --- -- ----- gd79-12-05d2t06.wav
4:34.51 48453408 -b- -- ----- gd79-12-05d3t01.wav
12:19.31 130432556 --- -- ----- gd79-12-05d3t02.wav
3:17.23 34804940 --- -- ----- gd79-12-05d3t03.wav
6:43.73 71260940 --- -- ----- gd79-12-05d3t04.wav
8:00.69 84834332 --- -- ----- gd79-12-05d3t05.wav
4:12.01 44455196 --- -- ----- gd79-12-05d3t06.wav
111:49.31 1183540664 B (totals for 12 files, 1.0000 overall compression ratio)

There were sector boundary errors.
05/04/2007 billfgrady Get this for the Shakedown. Just get it.
05/07/2007 charlie miller Just checked my files and they don't have any sector boundary errors. Not sure why you have a different output.
05/09/2007 Wharfrat73 I just pulled my archived flacs for this source and the anonymous poster is correct about the SBEs. Note that the timings of d02t01 and d3t01 are different by .02 seconds when comparing the shntool len output in the info file and in the comments.
05/09/2007 charlie miller Apparently I burned my discs from the wrong files. I'll circulate a fixed version with both encores.