Browse Collections Artists Sources   Search Dates

Add Show    List Management    Help


Grateful Dead 08/16/81
McArthur Court, U of Oregon, Eugene, OR
Comments Add Comment    Source Collectors    Add to Collection    Add to Want List    History
Source # 32019 Other Sources
Entered by Matt Vernon
Checksums ffp , flac-md5
Disc Counts 2 / 2
Media Size
Date Circulated
Date Added
12/31/2005
01/04/2006
Source Summary flac16; SBD > ? > (Cx?) > CDR > EAC > WAV > WavMerge > Soundforge > CD-Wave > TLH (for checksums and SBE-OK) > FLAC Frontend 
  Archive
Source Information - Download Text | Download Zip
GRATEFUL DEAD
MacArthur Court
University of Oregon
Eugene, OR
08-16-1981

SBD (unknown lineage, first two songs from AUD source)

Disc One (76:49)

01 Jack Straw
02 Friend of the Devil >
03 El Paso
04 Loser
05 Minglewood Blues
06 Peggy-O
07 Little Red Rooster
08 Deal
-- set break --
09 tuning
10 Feel Like a Stranger
-- encore --
11 It's All Over Now Baby Blue

Disc Two (79:33)

01 Scarlet Begonias >
02 Fire on the Mountain >
03 Estimated Prophet >
04 Eyes of the World >
05 Jam without Jerry >
06 Drums > (With Kesey, Babbs & The Thunder Machine)
07 Space >
08 The Other One >
09 Stella Blue >
10 Around & Around >
11 Good Lovin'

SBD > ? > (Cx?) > CDR > EAC > WAV > WavMerge > Soundforge > CD-Wave > TLH
(for checksums and SBE-OK) > FLAC Frontend > bt.etree December 2005.

AUD Patches from archive.org: "Nak 300's > MC > DAT > CDR"

The SBD source appears to have a few casssette generations in it. There
is audible hiss and a minor low-end hum. Nevertheless, the tape is still
very listenable and the show is well worth it...

The SBD was missing the first two songs, so I grabbed those from the AUD
version posted at LMA and used Soundforge to correct the pitch, match
the volume, and add them to this file set. I also added 18 seconds from
the AUD to cover the tape flip in drums, which comes at the end of the
Thunder Machine segment. And, I used Soundforge to make a few small edits
and fades where needed in the SBD source.

I tracked the files for CDR burning onto two 700-MB discs. The track-ID
breaks between Stranger & Scarlet, and Good Lovin' & Baby Blue, fall
onto silent gaps, so you can rearrange these into a three-disc set that
runs in the correct order.

There's a disruption in the sound during Jerry's solo in Peggy-O. It
sounds like the audience ambience mics were briefly turned up too loud.
There's a small cut at the beginning of Red Rooster, presumably for a
tape flip.

THANKS to Jake Feinberg for locating and sharing these discs! ENJOY !


    length     expanded size   cdr  WAVE problems filename
     5:46.15       61069724    ---   --   ---xx   gd1981-08-16d1t01.flac
     9:13.20       97596284    ---   --   ---xx   gd1981-08-16d1t02.flac
     7:15.57       76868108    ---   --   ---xx   gd1981-08-16d1t03.flac
     8:44.60       92574764    ---   --   ---xx   gd1981-08-16d1t04.flac
     7:23.15       78180524    ---   --   ---xx   gd1981-08-16d1t05.flac
     6:34.02       69506348    ---   --   ---xx   gd1981-08-16d1t06.flac
     8:00.54       84799052    ---   --   ---xx   gd1981-08-16d1t07.flac
     6:59.17       73951628    ---   --   ---xx   gd1981-08-16d1t08.flac
     2:27.35       26013164    ---   --   ---xx   gd1981-08-16d1t09.flac
     7:04.23       74847740    ---   --   ---xx   gd1981-08-16d1t10.flac
     7:20.68       77775980    ---   --   ---xx   gd1981-08-16d1t11.flac
    10:01.49      106131692    ---   --   ---xx   gd1981-08-16d2t01.flac
     8:31.66       90295676    ---   --   ---xx   gd1981-08-16d2t02.flac
     9:08.48       96780140    ---   --   ---xx   gd1981-08-16d2t03.flac
     6:29.32       68694908    ---   --   ---xx   gd1981-08-16d2t04.flac
     2:05.39       22141772    ---   --   ---xx   gd1981-08-16d2t05.flac
    10:09.38      107517020    ---   --   ---xx   gd1981-08-16d2t06.flac
     6:29.14       68652572    ---   --   ---xx   gd1981-08-16d2t07.flac
     5:58.12       63179468    ---   --   ---xx   gd1981-08-16d2t08.flac
     9:22.50       99254444    ---   --   ---xx   gd1981-08-16d2t09.flac
     3:40.02       38812748    ---   --   ---xx   gd1981-08-16d2t10.flac
     7:36.38       80527820    ---   --   ---xx   gd1981-08-16d2t11.flac
   156:23.04     1655171576 B                     (totals for 22 files, 0.5384 overall compression ratio)

There were no sector boundary errors.
Show Checksums
ffp
gd1981-08-16d1t01.flac:6a9c251892bedee5cf29167bd1f4fddd
gd1981-08-16d1t02.flac:6305702cffbb76264340ecd90584e208
gd1981-08-16d1t03.flac:910b8e9c0d7bacc09bd1f519499b206f
gd1981-08-16d1t04.flac:8538d579dbbb7a9aa662ce8da5aa40b9
gd1981-08-16d1t05.flac:c3534a41f9163e1caadae0578460cf45
gd1981-08-16d1t06.flac:d733632bfb878b00a655f0f1cd7c411d
gd1981-08-16d1t07.flac:c93859dfaeb2dca34744c4371e4c5de7
gd1981-08-16d1t08.flac:279fde3ec73fda8ee7edc365a36d8faf
gd1981-08-16d1t09.flac:7809782c738e2cad3061683d16b552d6
gd1981-08-16d1t10.flac:dd9980eaff021e617b4618a6cdf41b66
gd1981-08-16d1t11.flac:992d600702721ce948dfd59f2da7410a
gd1981-08-16d2t01.flac:681a4fe6cad944f21b3cfb1ed6e4cc0e
gd1981-08-16d2t02.flac:c594f51f0b9bc8bf42b2c5b471a9dfa6
gd1981-08-16d2t03.flac:90baadd63489e87840ef4535d1f111ce
gd1981-08-16d2t04.flac:7726076099a9eef7eb296781043ceaa5
gd1981-08-16d2t05.flac:2f489a4f0a5d84b86f832ee8ff80fecb
gd1981-08-16d2t06.flac:300a21c17640b2e01dad6ba215156af4
gd1981-08-16d2t07.flac:88e889672d8fa97467559399fdcf098a
gd1981-08-16d2t08.flac:09451325526a320b6d214821cc999288
gd1981-08-16d2t09.flac:4f540310f244cf953d74d7516e1a48ff
gd1981-08-16d2t10.flac:08763ff4e7b012dc6e111d0e7ae6c0c0
gd1981-08-16d2t11.flac:e6fd96fd30c99d26dd7e3cf123240458
flac-md5
8227ec61ff7be937662c5db3f3542827 *gd1981-08-16d1t01.flac
730c0354b13c3ab07a813a9bc9dc7540 *gd1981-08-16d1t02.flac
b93d92a761523a5b14deb1dfba8ee0f0 *gd1981-08-16d1t03.flac
f0d537c34dcf9c64a877dfdceea8e350 *gd1981-08-16d1t04.flac
eb4741adfdc7875a5e4967321d21bfce *gd1981-08-16d1t05.flac
0b9aea0bfb63588e5821bd638a843a3a *gd1981-08-16d1t06.flac
2976b314e95f3894d30596bbcf52483c *gd1981-08-16d1t07.flac
29f6baa6c68fd60fe6b344d7982af161 *gd1981-08-16d1t08.flac
238b0be4d268d8429529a1b976d585cf *gd1981-08-16d1t09.flac
eaee7522fc104254db35c53a6c91c6eb *gd1981-08-16d1t10.flac
8341fe866ac65ce66efa03365187578f *gd1981-08-16d1t11.flac
21eb790da83b1412e82693fb75d4aef1 *gd1981-08-16d2t01.flac
7d4ebed0d9507f70678383f93b3d512b *gd1981-08-16d2t02.flac
b971bdf3bef6ada0cc5131bc2530ada9 *gd1981-08-16d2t03.flac
f9b4c63a86c9659892daca6cef8fd5b4 *gd1981-08-16d2t04.flac
547e4f2397dc150d5b8f7cc6441532b3 *gd1981-08-16d2t05.flac
affb0225476826ad99438b3270ebbc93 *gd1981-08-16d2t06.flac
de001c766f40710a5fd42b9587da5fd2 *gd1981-08-16d2t07.flac
fef8f9847886280e87d9156487c7bea4 *gd1981-08-16d2t08.flac
3fbcbb6c8854e0bcccb4041f4f7c60b8 *gd1981-08-16d2t09.flac
e81d2d34e6d899bf3b954a4ff9bf48ae *gd1981-08-16d2t10.flac
fdae2e848e751477597477019dcb7f5a *gd1981-08-16d2t11.flac

Comments
Add Comment
Other Sources (comments)
Recording by Jim Vita.... (1) flac16; Recording... (0) flac24; AUD:... (0) flac16; AUD:... (0)
Date User Comment
05/20/2007 btet This source was FLACed using Replaygain (as determined by selecting tracks in Winamp's playlist and bringing up the track properties by hitting ALT + 3).