Browse Collections Artists Sources   Search Dates

Add Show    List Management    Help


Grateful Dead 04/13/71
Catholic Youth Center, Scranton, PA
Comments Add Comment    Source Collectors    Add to Collection    Add to Want List    History
Source # 32077 Other Sources
Entered by dr.unclear
Checksums ffp , flac-md5
Disc Counts 1 / 2
Media Size
Date Circulated
Date Added
01/10/2006
01/10/2006
Source Summary flac16; SBD > MR > DAT > FLAC > DAW(Bertha) > Audio DVD > DVD Audio Extractor v.3.3.2 (audio files extracted prior to burning to DVD disc) > 24/48 wav > downsampled to 44.1 wav with Wave Lab v.5.00a > dithered to from 24-16 bit depth with Wave Lab UV22 HR Plugin > SBEs fixed with shntool v.2.0.3 (by set) > files rennamed with File Renamer v.1.0.0 > FLAC encoding with FLAC Frontend v.1.7.1 Etree Edition, FLAC v.1.1.2 (level 6) 
  Archive
Source Information - Download Text | Download Zip
"Bertha Remaster Series"

The Grateful Dead  
4-13-1971
The Catholic Youth Center
Scranton PA

Bertha Remaster of the Master Reel source (shn ID 32015)

SBD > MR > DAT > FLAC > DAW(Bertha) > Audio DVD > DVD Audio Extractor v.3.3.2 (audio files extracted prior to burning to DVD disc) > 24/48 wav > downsampled to 44.1 wav with Wave Lab v.5.00a > dithered to from 24-16 bit depth with Wave Lab UV22 HR Plugin > SBEs fixed with shntool v.2.0.3 (by set) > files rennamed with File Renamer v.1.0.0 > FLAC encoding with FLAC Frontend v.1.7.1 Etree Edition, FLAC v.1.1.2 (level 6)
(1 disc .flac/2 discs .wav)

Set 1
Disc 1

d1t01 - //Casey Jones
d1t02 - Mama Tried
d1t03 - Loser
d1t04 - Big Boss Man
d1t05 - Me And Bobbie McGee
d1t06 - Bertha
d1t07 - Cumberland Blues
d1t08 - //Big Railroad Blues
d1t09 - Playing in the Band
d1t10 - Hard To Handle
d1t11 - Sugar Magnolia

Set 2
Disc 2

d2t01 - //Truckin' >>
d2t02 - Drums >>
d2t03 - Good Lovin'
d2t04 - I Second that Emotion
d2t05 - Greatest Story >>
d2t06 - Johnny B. Goode
d2t07 - //Uncle John's Band

Jay's Notes:

Digitally Remastered using a custom built, Dual-DAW, nicknamed Bertha, by [email protected]  Completed January 6, 2006.

Frequency analysis revealed a strange upward slope from around 12khz out beyond 22khz. This is why the high end is so bright and tinny sounding.  It's not known what caused this, though, it is not very common to see this on a master reel source. Perhaps the recorder had an extended range setting that was set improperly or possibly recorded with dolby and played back without dolby.  In any case, the curve was corrected, making for a more natural sounding high end.

The mix is all over the place, sometimes perfect and sometimes overdriven and badly distorted. Together with the cuts, somebody must have been a bit too Stoned.  And at the Catholic Center no less...the shame. LOL!

From the original text file, prior to Bertha Remastering:

MSR>DAT3x>Delta Dio 2496 soundcard>Soundforge>Flac

This is the complete show. A couple of seconds are missing at the start of four songs

The original Audio DVD as well as the CD version are available at http://server2.deadacated.com:9000/index.html
Thanks to Jay Ashley for all his hard work on this show!
CD version created 2006-01-10 by Gary F.

    length     expanded size   cdr  WAVE problems filename
     5:52.25       62151644    ---   --   -----   gd1971-04-13d1t01.wav
     3:30.22       37095788    ---   --   -----   gd1971-04-13d1t02.wav
     7:28.43       79128380    ---   --   -----   gd1971-04-13d1t03.wav
     7:55.51       83909996    ---   --   -----   gd1971-04-13d1t04.wav
     6:23.50       67678844    ---   --   -----   gd1971-04-13d1t05.wav
     7:23.69       78307532    ---   --   -----   gd1971-04-13d1t06.wav
     5:01.18       53138780    ---   --   -----   gd1971-04-13d1t07.wav
     4:49.12       51007868    ---   --   -----   gd1971-04-13d1t08.wav
     7:38.43       80892380    ---   --   -----   gd1971-04-13d1t09.wav
     9:49.13      103930220    ---   --   -----   gd1971-04-13d1t10.wav
     6:47.65       71947724    ---   --   -----   gd1971-04-13d1t11.wav
     7:30.01       79382396    ---   --   -----   gd1971-04-13d2t01.wav
     4:23.62       46539068    ---   --   -----   gd1971-04-13d2t02.wav
    19:33.16      206954876    ---   --   -----   gd1971-04-13d2t03.wav
     6:00.12       63532268    ---   --   -----   gd1971-04-13d2t04.wav
     2:43.59       28892012    ---   --   -----   gd1971-04-13d2t05.wav
     4:01.58       42648860    ---   --   -----   gd1971-04-13d2t06.wav
     6:26.43       68191580    ---   --   -----   gd1971-04-13d2t07.wav
   123:19.62     1305330216 B                     (totals for 18 files, 1.0000 overall compression ratio)

Fingerprint:
gd1971-04-13d1t01.flac:c4ecd90bd7ee83f2af0772b540aaf7f5
gd1971-04-13d1t02.flac:490e59ae1e0945f01ada0fdc3c41792a
gd1971-04-13d1t03.flac:216624d23cd53696cfdda508d1af4cb7
gd1971-04-13d1t04.flac:b63be6ee735b6aeac875d80ea64fe11b
gd1971-04-13d1t05.flac:98f595f9af943b38c742dae64e869400
gd1971-04-13d1t06.flac:193937ce5f27ef0acc616ec997b250a0
gd1971-04-13d1t07.flac:b9edc7e654e343bb1c7dd2c651a5337d
gd1971-04-13d1t08.flac:c79636fd95e89c4279a0fba9171bceee
gd1971-04-13d1t09.flac:b9a4076c53ead5c60b37ea41b00f453f
gd1971-04-13d1t10.flac:775cfd44ac57841b7901b62507afc456
gd1971-04-13d1t11.flac:d27e4f9fe4a9032e4e6bf1595a249d7b
gd1971-04-13d2t01.flac:7940ef59a96540a5fa2888a22d6317fe
gd1971-04-13d2t02.flac:86eb7b8dd96398e8979bc01d7c7cdbea
gd1971-04-13d2t03.flac:ece1bdde0a95b069d2871da28e3a5cbd
gd1971-04-13d2t04.flac:7aafeab400f3981c020dc61db5abcea4
gd1971-04-13d2t05.flac:377f371ba0935ee218098a3d27ce4866
gd1971-04-13d2t06.flac:f3837080b5993669350751fbc5a131ed
gd1971-04-13d2t07.flac:2b4a754ac60d530bbb6f8b12edce7900
Show Checksums
ffp
gd1971-04-13d1t01.flac:c4ecd90bd7ee83f2af0772b540aaf7f5
gd1971-04-13d1t02.flac:490e59ae1e0945f01ada0fdc3c41792a
gd1971-04-13d1t03.flac:216624d23cd53696cfdda508d1af4cb7
gd1971-04-13d1t04.flac:b63be6ee735b6aeac875d80ea64fe11b
gd1971-04-13d1t05.flac:98f595f9af943b38c742dae64e869400
gd1971-04-13d1t06.flac:193937ce5f27ef0acc616ec997b250a0
gd1971-04-13d1t07.flac:b9edc7e654e343bb1c7dd2c651a5337d
gd1971-04-13d1t08.flac:c79636fd95e89c4279a0fba9171bceee
gd1971-04-13d1t09.flac:b9a4076c53ead5c60b37ea41b00f453f
gd1971-04-13d1t10.flac:775cfd44ac57841b7901b62507afc456
gd1971-04-13d1t11.flac:d27e4f9fe4a9032e4e6bf1595a249d7b
gd1971-04-13d2t01.flac:7940ef59a96540a5fa2888a22d6317fe
gd1971-04-13d2t02.flac:86eb7b8dd96398e8979bc01d7c7cdbea
gd1971-04-13d2t03.flac:ece1bdde0a95b069d2871da28e3a5cbd
gd1971-04-13d2t04.flac:7aafeab400f3981c020dc61db5abcea4
gd1971-04-13d2t05.flac:377f371ba0935ee218098a3d27ce4866
gd1971-04-13d2t06.flac:f3837080b5993669350751fbc5a131ed
gd1971-04-13d2t07.flac:2b4a754ac60d530bbb6f8b12edce7900
flac-md5
97e1be85c43c6ec5b81ea2f68603332d *gd1971-04-13d1t08.flac
738ae90bdf7cd6c7b7598da82494e0ae *gd1971-04-13d1t09.flac
04a6d2b70831571e39f5dba04c819d3b *gd1971-04-13d1t10.flac
babd3cd7d20d2d478d3bd3d1efe1a2bf *gd1971-04-13d1t11.flac
16e6bdad99b08603a4a8bb1a41709843 *gd1971-04-13d2t01.flac
a682e113df316a10ba6a0b293c5efbec *gd1971-04-13d2t02.flac
0719a682ecc0b17151b5a82606bfa08b *gd1971-04-13d2t03.flac
61dcadd4d9bffa360529300e2ab02d93 *gd1971-04-13d2t04.flac
c7dd467652419920def391adb2bc9441 *gd1971-04-13d2t05.flac
c3fcf3f2eb5cbed4a788e4004a915d2b *gd1971-04-13d2t06.flac
838916126287bca653d4defce6ddf249 *gd1971-04-13d2t07.flac
274e2ff81a4722af2a4b166babac8889 *gd1971-04-13d1t01.flac
0a18460aa2280e6a1d46a56ccb66e16b *gd1971-04-13d1t02.flac
ab4672fe360ae62fdda64ecb9ca8c406 *gd1971-04-13d1t03.flac
cb4cd93deaef740c50f0964fa5f91016 *gd1971-04-13d1t04.flac
f5f6bcbb41bd64f0c43685ce1de3e8e3 *gd1971-04-13d1t05.flac
96c9cfa360832dcced9694a4d457a59e *gd1971-04-13d1t06.flac
96674dcbc351847e4a5a9fa1480b05ed *gd1971-04-13d1t07.flac

Comments
Add Comment
Other Sources (comments)
set 2 partial; Master... (0) flac16;... (0) DVD VA; (Video... (0)
Date User Comment