Browse Collections Artists Sources   Search Dates

Add Show    List Management    Help


Grateful Dead 03/20/81
Rainbow Theater, London, England
Comments Add Comment    Source Collectors    Add to Collection    Add to Want List    History
Source # 32142 Other Sources
Entered by dr.unclear
Checksums shn-md5 , st5
Disc Counts 2 / 3
Media Size
Date Circulated
Date Added
01/19/2006
01/20/2006
Source Summary AUD > MC > C > SB!Live > CD > EAC > WaveLab > CDWave > shn MC: Sony TC D5M, dolby B, TDK MA C90, Sennheiser 406T C/1: TDK SA-C90, dolby B, Nakamishi DR1 Different mics position in set 2. via Bernd Weiskircher 
  Archive
Source Information - Download Text | Download Zip
Grateful Dead - 3/20/81
Rainbow Theatre
London


AUD > MC > C > SB!Live > CD > EAC > WaveLab > CDWave > shn
MC: Sony TC D5M, dolby B, TDK MA C90, Sennheiser 406T
C/1: TDK SA-C90, dolby B, Nakamishi DR1

Different mics position in set 2.

Parts of the tape of the 2nd set cassette were damaged. This is sporadically listenable.
Deal was normalised.
Minor denoising and equalising(WaveLab) in the left channel of the 1st set, more in right channel
and in the whole 2nd set.
Tape flip at the very end of He's Gone > Boby's jam
missing U.S. Blues (encore)


Set 1:
d1t01 - Feel Like A Stranger
d1t02 - Friend Of The Devil
d1t03 - C.C. Rider
d1t04 - Althea
d1t05 - Mama Tried >
d1t06 - Mexicali Blues
d1t07 - Loser
d1t08 - New Minglewood Blues
d2t01 - Candyman >
d2t02 - Looks Like Rain >
d2t03 - Deal

Set 2:
d2t04 - Scarlet Begonias >
d2t05 - Fire On The Mountain >
d2t06 - Lost Sailor >
d2t07 - Saint Of Circumstances
d3t01 - He's Gone >
d3t02 - Bobby's Jam >
d3t03 - Drums >
d3t04 - Space >
d3t05 - Truckin' >
d3t06 - Wharf Rat >
d3t07 - Around and Around >
d3t08 - Johnny B. Goode


SHNTOOL LEN OUTPUT:

    length     expanded size    cdr  WAVE problems  fmt   ratio  filename
     9:42.05      102676604 B   ---   --   ---xx    shn  0.6672  gd81-03-20d1t01.shn
     9:23.50       99430844 B   ---   --   ---xx    shn  0.6454  gd81-03-20d1t02.shn
     8:37.58       91335260 B   ---   --   ---xx    shn  0.6427  gd81-03-20d1t03.shn
     8:49.67       93473228 B   ---   --   ---xx    shn  0.6484  gd81-03-20d1t04.shn
     2:32.06       26826956 B   ---   --   ---xx    shn  0.6711  gd81-03-20d1t05.shn
     4:55.11       52063916 B   ---   --   ---xx    shn  0.6708  gd81-03-20d1t06.shn
     8:19.41       88120076 B   ---   --   ---xx    shn  0.6194  gd81-03-20d1t07.shn
     7:27.60       78991964 B   ---   --   ---xx    shn  0.6778  gd81-03-20d1t08.shn
     7:19.00       77439644 B   ---   --   ---xx    shn  0.5868  gd81-03-20d2t01.shn
     7:56.40       84060524 B   ---   --   ---xx    shn  0.6152  gd81-03-20d2t02.shn
     9:01.11       95458316 B   ---   --   ---xx    shn  0.6912  gd81-03-20d2t03.shn
    11:13.13      118747820 B   ---   --   ---xx    shn  0.6543  gd81-03-20d2t04.shn
    11:24.03      120664700 B   ---   --   ---xx    shn  0.6462  gd81-03-20d2t05.shn
     6:01.23       63734540 B   ---   --   ---xx    shn  0.5798  gd81-03-20d2t06.shn
     6:30.21       68845436 B   ---   --   ---xx    shn  0.6733  gd81-03-20d2t07.shn
    10:31.06      111322556 B   ---   --   ---xx    shn  0.5621  gd81-03-20d3t01.shn
     0:43.52        7707548 B   ---   --   ---xx    shn  0.6281  gd81-03-20d3t02.shn
    10:08.19      107295932 B   ---   --   ---xx    shn  0.5189  gd81-03-20d3t03.shn
     5:58.60       63292364 B   ---   --   ---xx    shn  0.5387  gd81-03-20d3t04.shn
     9:12.63       97521020 B   ---   --   ---xx    shn  0.6715  gd81-03-20d3t05.shn
     8:37.69       91361132 B   ---   --   ---xx    shn  0.5903  gd81-03-20d3t06.shn
     4:06.41       43490876 B   ---   --   ---xx    shn  0.6569  gd81-03-20d3t07.shn
     4:35.06       48524440 B   -b-   --   ---xx    shn  0.6827  gd81-03-20d3t08.shn
   173:07.50     1832385696 B                            0.6295  (23 files)
Show Checksums
shn-md5
2332642acac669701cacc8ce8ed02d27 *gd81-03-20d1t01.shn
73f65ad584347f99dcbe9cc40818f8f9 *gd81-03-20d1t02.shn
9ce6eb572d1b30d72f859ca79495aa19 *gd81-03-20d1t03.shn
a88daf2b991776ada54276645f929a2a *gd81-03-20d1t04.shn
7dc9928ece9998b6591f1f05441d9a74 *gd81-03-20d1t05.shn
070803f354b341baa4b805c97d561c32 *gd81-03-20d1t06.shn
f1cb51cfdd055c4489a7ca309a0fe84e *gd81-03-20d1t07.shn
537ee064eac96e73202219822e0178a5 *gd81-03-20d1t08.shn
c34bb6573accb7480aeae74c459cfab1 *gd81-03-20d2t01.shn
91b6b097f6e1e65d7f7f05d7f4bec02b *gd81-03-20d2t02.shn
a8b631c6a90343eed617ae463235814e *gd81-03-20d2t03.shn
5237649941d52e462970cc3f71388ec4 *gd81-03-20d2t04.shn
038ee2fe9e49e966cb5e1bcb34d0bbd3 *gd81-03-20d2t05.shn
adb03fd7bfd60ce78bf270fff979ddff *gd81-03-20d2t06.shn
8fa70ff1a0db7cbfcd9ebee2c72a3b3a *gd81-03-20d2t07.shn
8a583091f221c0e60d456c555a54c6e6 *gd81-03-20d3t01.shn
431418f3cd23a87b314b56e4a74ad8b6 *gd81-03-20d3t02.shn
9f093b2d11422056e34c2bfd2453c3b6 *gd81-03-20d3t03.shn
03413a01f9596d6dd871e818ed17638b *gd81-03-20d3t04.shn
ed3dece104cf53cb6c85891a1f755ad2 *gd81-03-20d3t05.shn
18535022de075c21f748424ef846ab3e *gd81-03-20d3t06.shn
ff10bc1cbd24d2ea1b0fdcb93e442988 *gd81-03-20d3t07.shn
1ebc3314fea0817d2980a37150a4054b *gd81-03-20d3t08.shn
st5
8c161878c0a7f33c00bc19ff714b50d1 [shntool] gd81-03-20d1t01.shn
24568008894bda281b748ab8d1686367 [shntool] gd81-03-20d1t02.shn
367a3faf0a7adf17ecabbc1ea53c783c [shntool] gd81-03-20d1t03.shn
2fb6e8d64e9c485a6e7f4e5dff262fb6 [shntool] gd81-03-20d1t04.shn
d76a601f61a35c14df957b394e847ca8 [shntool] gd81-03-20d1t05.shn
3d9dc7e8638dccfa77d202c2eacd2534 [shntool] gd81-03-20d1t06.shn
e099c561254c14a384ee5010b3a96fe2 [shntool] gd81-03-20d1t07.shn
587295472138a3dca1abfe86e7eb0982 [shntool] gd81-03-20d1t08.shn
dc8f033bb1579804d5cf555b9915a491 [shntool] gd81-03-20d2t01.shn
b984cadbf497d07f7ed423484252c62b [shntool] gd81-03-20d2t02.shn
5d4a3405a9272296bf9ef16ce5087086 [shntool] gd81-03-20d2t03.shn
26b80d87b63f4feb2c90241e1ec5970a [shntool] gd81-03-20d2t04.shn
546de9ed73eb00fea11a739d1ada2e5a [shntool] gd81-03-20d2t05.shn
3e5ac55551fca2e966ff21cbf4816be9 [shntool] gd81-03-20d2t06.shn
a4f7d7d5813594cd24e2d06dbab51766 [shntool] gd81-03-20d2t07.shn
8c178b4fae66ff7c3338cfb018f8e08f [shntool] gd81-03-20d3t01.shn
2089d2009a9fa87673d1b56659ccf12d [shntool] gd81-03-20d3t02.shn
6ff628368eed3ebfd1c1979b5cfbe957 [shntool] gd81-03-20d3t03.shn
d23ebfc4a9c5b3cec0255c5bffab24d5 [shntool] gd81-03-20d3t04.shn
eaa6a496c66f37f2c1e9df2d6bd06699 [shntool] gd81-03-20d3t05.shn
eaba5991b32d3705fdcd7852802efe0d [shntool] gd81-03-20d3t06.shn
c7181ab49cb419134f054b0af3de7207 [shntool] gd81-03-20d3t07.shn
d8a7ecce0444e876b27c075bef035b96 [shntool] gd81-03-20d3t08.shn

Comments
Add Comment
Other Sources (comments)
MAC > C > C > D > CD; via... (4) flac16; master... (0) flac24; soundboard... (0) flac16: Soundcheck... (0) flac16; Source Info:... (0) flac24; Source Info:... (0)
Date User Comment