Browse Collections Artists Sources   Search Dates

Add Show    List Management    Help


Grateful Dead 03/21/81
Rainbow Theater, London, England
Comments Add Comment    Source Collectors    Add to Collection    Add to Want List    History
Source # 32143 Other Sources
Entered by dr.unclear
Checksums shn-md5 , st5
Disc Counts 2 / 3
Media Size
Date Circulated
Date Added
01/18/2006
01/20/2006
Source Summary AUD > MC > C > Nakamishi DR1 > SB!Live > WaveLab > CDWave > SHN MC: Sony TC D5M, dolby B, metal-cassettes, Sennheiser 406T C/1: TDK SA-C90, Maxell XL II, dolby B via Bernd Weiskircher 
  Archive
Source Information - Download Text | Download Zip
Grateful Dead  - 3/21/81
Rainbow Theatre
London, England



AUD > MC > C > Nakamishi DR1 > SB!Live > WaveLab > CDWave > SHN
MC: Sony TC D5M, dolby B, metal-cassettes, Sennheiser 406T
C/1: TDK SA-C90, Maxell XL II, dolby B

Introduction and tape flip in Drums (4:54 to 5:01) are patched
from AUD (Sennheiser 421's > Sony TCD 5) > MC > DAT > CD

Minor denoising and equalising using WaveLab

Little Red Rooster and Don't Ease Me In are maximised

Set 1:
d1t01 - Introduction
d1t02 - Alabama Gataway>
d1t03 - Promised Land
d1t04 - Peggy-o
d1t05 - Me & My Uncle>
d1t06 - Big River
d1t07 - Tennessee Jed
d1t08 - Little Red Rooster
d1t09 - Althea
d2t01 - Let It Grow>
d2t02 - China Cat Sunflower>
d2t03 - I Know You Rider

Set 2:
d2t04 - Jack Straw
d2t05 - Ship Of Fools
d3t01 - Estimated Prophet>
d3t02 - Eyes Of The World>
d3t03 - Drums>
d3t04 - Space>
d3t05 - Not Fade Away>
d3t06 - Black Peter>
d3t07 - One More Saturday Night
d3t08 - Bob's Joke

Encore:
d3t09 - Don't Ease Me In


SHNTOOL LEN OUTPUT:

    length     expanded size    cdr  WAVE problems  fmt   ratio  filename
     0:47.18        8333180 B   ---   --   ---xx    shn  0.5234  gd81-03-21d1t01.shn
     6:53.42       72952028 B   ---   --   ---xx    shn  0.6524  gd81-03-21d1t02.shn
     4:17.43       45435980 B   ---   --   ---xx    shn  0.7014  gd81-03-21d1t03.shn
     7:31.53       79681100 B   ---   --   ---xx    shn  0.6027  gd81-03-21d1t04.shn
     2:59.30       31646204 B   ---   --   ---xx    shn  0.7042  gd81-03-21d1t05.shn
     5:47.46       61319036 B   ---   --   ---xx    shn  0.7219  gd81-03-21d1t06.shn
     8:34.19       90714332 B   ---   --   ---xx    shn  0.6901  gd81-03-21d1t07.shn
     9:02.21       95658236 B   ---   --   ---xx    shn  0.7038  gd81-03-21d1t08.shn
    10:27.73      110774540 B   ---   --   ---xx    shn  0.6528  gd81-03-21d1t09.shn
    13:28.11      142557116 B   ---   --   ---xx    shn  0.6787  gd81-03-21d2t01.shn
     6:56.68       73542380 B   ---   --   ---xx    shn  0.6533  gd81-03-21d2t02.shn
     8:25.14       89114620 B   -b-   --   ---xx    shn  0.6586  gd81-03-21d2t03.shn
     6:32.52       69271148 B   ---   --   ---xx    shn  0.6785  gd81-03-21d2t04.shn
     8:45.23       92664140 B   ---   --   ---xx    shn  0.6036  gd81-03-21d2t05.shn
    12:37.19      133579532 B   ---   --   ---xx    shn  0.6809  gd81-03-21d3t01.shn
    13:18.09      140788412 B   ---   --   ---xx    shn  0.7102  gd81-03-21d3t02.shn
    11:01.72      116769788 B   ---   --   ---xx    shn  0.5963  gd81-03-21d3t03.shn
     6:43.64       71239772 B   ---   --   ---xx    shn  0.5954  gd81-03-21d3t04.shn
    10:25.68      110409980 B   ---   --   ---xx    shn  0.7059  gd81-03-21d3t05.shn
     9:11.24       97252892 B   ---   --   ---xx    shn  0.6244  gd81-03-21d3t06.shn
     5:06.63       54126620 B   ---   --   ---xx    shn  0.7384  gd81-03-21d3t07.shn
     4:02.67       42845744 B   -b-   --   ---xx    shn  0.6622  gd81-03-21d3t08.shn
   172:57.74     1830676780 B                            0.6648  (22 files)

Show Checksums
shn-md5
803930f3be87ecd1953fd8b24886040f *gd81-03-21d1t01.shn
35dd583dc154abd9337234a18cd57bb2 *gd81-03-21d1t02.shn
f4662c22e92bbf18ad7cbd92eb76e308 *gd81-03-21d1t03.shn
d124e53e8ffd238fd249f73676db669a *gd81-03-21d1t04.shn
2a978f8c82c0cdfb56ae20861e76b054 *gd81-03-21d1t05.shn
46f398ae10c2c9e72a5ca7c1abd52c43 *gd81-03-21d1t06.shn
c8155f868477979a9f01650906c68bc6 *gd81-03-21d1t07.shn
331c0ee530a6b40bebab7280cc7cf2c9 *gd81-03-21d1t08.shn
57704a3071d45142f6abc34007f2a117 *gd81-03-21d1t09.shn
5219a39d00081642b9435d9177c69b2d *gd81-03-21d2t01.shn
8f7895531f82f2d069f15035c20a9c6a *gd81-03-21d2t02.shn
10ef0e3dff9e34ddc57d3fd694015e9a *gd81-03-21d2t03.shn
5382d3cb96184118602b7d549f2d70ec *gd81-03-21d2t04.shn
5719be5f359779dd297b0f9d4f15120d *gd81-03-21d2t05.shn
d9d9356bd7064da9210f98af7b812ee0 *gd81-03-21d3t01.shn
8d6c6fedef429d47b3000b0f822fe273 *gd81-03-21d3t02.shn
848f26b0115c99caa6ac4641fc66b8d1 *gd81-03-21d3t03.shn
2c6791522516c5abb416925104054861 *gd81-03-21d3t04.shn
088e11bc4b7f667959bfff32941bf904 *gd81-03-21d3t05.shn
626373caa881a73fc820c518265cecad *gd81-03-21d3t06.shn
97ef71e6ee334894f28b08d5bf98fdc8 *gd81-03-21d3t07.shn
721dd85118f92f43f93a5e246ceaee20 *gd81-03-21d3t08.shn
st5
ec93e995917cbd6a0c3b85fe8df25f8d [shntool] gd81-03-21d1t01.shn
85c6f33e75ecdc50a7dbf339a2c3c41d [shntool] gd81-03-21d1t02.shn
d424395cea1f8392198659c53b9bdc95 [shntool] gd81-03-21d1t03.shn
285b70960bc7deb4c454c04e0cbea974 [shntool] gd81-03-21d1t04.shn
7af1405e85df41bf11daf258708a1da9 [shntool] gd81-03-21d1t05.shn
e26229edc0bccf32ff441258ad9caeb9 [shntool] gd81-03-21d1t06.shn
98fa19452ab99e4b6b130853975fba1c [shntool] gd81-03-21d1t07.shn
2fc0e4833541aeafc3f8051bffe8bfa2 [shntool] gd81-03-21d1t08.shn
d44a6b60f5111c5277dd963656b19e6b [shntool] gd81-03-21d1t09.shn
9dd1b90a087ccf267a5a0572396aa4d1 [shntool] gd81-03-21d2t01.shn
4f95cda54aac57a69df3cf3fdaedcecd [shntool] gd81-03-21d2t02.shn
5dff3b818ca5c2ea6195b18d145a7a34 [shntool] gd81-03-21d2t03.shn
1043f2fcbc8fed7dc8e08e9b74ba7cfc [shntool] gd81-03-21d2t04.shn
b95fdb7cce973e72021063c41f84355b [shntool] gd81-03-21d2t05.shn
582e6c112a44beac1ee8f27c652e3122 [shntool] gd81-03-21d3t01.shn
8e99d557ed3e729f761309e1bccaafc4 [shntool] gd81-03-21d3t02.shn
36ada0c51440a9922b70d69a8f1628be [shntool] gd81-03-21d3t03.shn
2e9c9c18cbf9c3a35c3eac067d1b2e33 [shntool] gd81-03-21d3t04.shn
7f8b6496528795597f61bc4103f0f57d [shntool] gd81-03-21d3t05.shn
4345268b210e73d32bfc57ca10df9d5f [shntool] gd81-03-21d3t06.shn
ed9071f83e9ddd21f0e818e82aea7783 [shntool] gd81-03-21d3t07.shn
484b01281e898bcd20718a353decd456 [shntool] gd81-03-21d3t08.shn

Comments
Add Comment
Other Sources (comments)
Senn 421's> Sony TC-D5... (1) Master Soundboard Cassette... (4) SBD:MC> Cass> CD, with AUD... (1) flac16; Set II... (1) flac16; Recording... (0) flac16; SBD/AUD -... (1) flac16; Source Info:... (0) flac24; Source Info:... (0)
Date User Comment