Browse Collections Artists Sources   Search Dates

Add Show    List Management    Help


Grateful Dead 03/23/81
Rainbow Theater, London, England
Comments Add Comment    Source Collectors    Add to Collection    Add to Want List    History
Source # 32145 Other Sources
Entered by dr.unclear
Checksums shn-md5 , st5
Disc Counts 2 / 3
Media Size
Date Circulated
Date Added
01/18/2006
01/20/2006
Source Summary AUD > MC > C > Nakamishi DR1 > SB!Live > WaveLab > CDWave > shn MC: Sony TC D5M, dolby B, TDK MA C90, Sennheiser 406T C/1: TDK SA-C90, dolby B via Bernd Weiskircher 
  Archive
Source Information - Download Text | Download Zip
Rainbow Theatre - 3/23/81
London


AUD > MC > C > Nakamishi DR1 > SB!Live > WaveLab > CDWave > shn
MC: Sony TC D5M, dolby B, TDK MA C90, Sennheiser 406T
C/1: TDK SA-C90, dolby B

tape flip in Drums (7:15 to 7:24) patched from AUD > MC > DAT > CD
first few seconds of Bird Song are minimised.
Minor denoising and equalising (WaveLab).

Set1:
d1t01 - Jack Straw
d1t02 - They Love Each Other
d1t03 - Cassidy
d1t04 - It Must Have Been The Roses >
d1t05 - El Paso
d1t06 - Ramble On Rose
d1t07 - New Minglewood Blues
d2t01 - Sugaree
d2t02 - Lazy Lightning > Supplication

Set2:
d2t03 - Bird Song
d2t04 - Samson and Delilah
d2t05 - To Lay Me Down
d3t01 - Terrapin Station >
d3t02 - Playing In The Band >
d3t03 - Drums >
d3t04 - Space >
d3t05 - The Other One >
d3t06 - Stella Blue >
d3t07 - Sugar Magnolia >

Encore:
d3t08 - Casey Jones


SHNTOOL LEN OUTPUT:

    length     expanded size    cdr  WAVE problems  fmt   ratio  filename
     8:24.00       88905644 B   ---   --   ---xx    shn  0.6380  gd81-03-23d1t01.shn
     9:01.03       95439500 B   ---   --   ---xx    shn  0.6025  gd81-03-23d1t02.shn
     5:16.56       55874156 B   ---   --   ---xx    shn  0.6581  gd81-03-23d1t03.shn
     6:58.56       73866956 B   ---   --   ---xx    shn  0.5972  gd81-03-23d1t04.shn
     5:08.54       54458252 B   ---   --   ---xx    shn  0.6490  gd81-03-23d1t05.shn
     7:56.52       84088748 B   ---   --   ---xx    shn  0.6345  gd81-03-23d1t06.shn
     8:49.26       93376796 B   ---   --   ---xx    shn  0.6461  gd81-03-23d1t07.shn
    12:26.61      131737916 B   ---   --   ---xx    shn  0.6050  gd81-03-23d2t01.shn
    10:25.35      110332364 B   ---   --   ---xx    shn  0.6456  gd81-03-23d2t02.shn
    15:00.72      158929388 B   ---   --   ---xx    shn  0.6071  gd81-03-23d2t03.shn
     7:50.44       83011532 B   ---   --   ---xx    shn  0.6954  gd81-03-23d2t04.shn
    10:34.72      112006988 B   ---   --   ---xx    shn  0.5473  gd81-03-23d2t05.shn
    12:51.16      136042076 B   ---   --   ---xx    shn  0.6298  gd81-03-23d3t01.shn
    17:58.33      190236860 B   ---   --   ---xx    shn  0.6709  gd81-03-23d3t02.shn
     8:57.30       94800388 B   -b-   h-   ---xx    shn  0.5374  gd81-03-23d3t03.shn
     3:51.29       40816652 B   ---   --   ---xx    shn  0.5513  gd81-03-23d3t04.shn
     5:36.16       59308076 B   ---   --   ---xx    shn  0.6566  gd81-03-23d3t05.shn
    11:16.35      119328764 B   ---   --   ---xx    shn  0.5497  gd81-03-23d3t06.shn
     9:38.68      102119180 B   ---   --   ---xx    shn  0.6723  gd81-03-23d3t07.shn
     6:50.09       72345212 B   ---   --   ---xx    shn  0.7088  gd81-03-23d3t08.shn
   184:54.17     1957025448 B                            0.6243  (20 files)


Show Checksums
shn-md5
9814959be524716f14e6c6274c0e2acf *gd81-03-23d1t01.shn
4d40c5adb804706e8bc5552dd8e18b30 *gd81-03-23d1t02.shn
600978982dbb10518d8ab89727bf0631 *gd81-03-23d1t03.shn
eb0d2e0a317bb315a9b991b0bf7c5ce7 *gd81-03-23d1t04.shn
11dcad679a0e084ef8a7781427006cc6 *gd81-03-23d1t05.shn
c5fbd882f882441ea56f7d4ec295180e *gd81-03-23d1t06.shn
9c3c5dc1aaacad1a430994d945fcd092 *gd81-03-23d1t07.shn
5c6d2ed4faa04d28ac6b700828527c09 *gd81-03-23d2t01.shn
f2a50f7af523ed4bc925b9df02d3e598 *gd81-03-23d2t02.shn
a0fa696685900b74d134d4b8ad6d1c6e *gd81-03-23d2t03.shn
8e1438f08bb70c59bad6aeb885f01c3f *gd81-03-23d2t04.shn
6ed7b0079fe36802d15f466304750cf4 *gd81-03-23d2t05.shn
7c856fb030b83d95759265490de1bf83 *gd81-03-23d3t01.shn
07b85b7091299dbe5bd6a365c688f9f0 *gd81-03-23d3t02.shn
fd853985ce27787c7c3308396cbf807e *gd81-03-23d3t03.shn
5a89328ee9a4dee4584632dcc6962fa0 *gd81-03-23d3t04.shn
74ca21d73e7285497a7420ff8d270ef4 *gd81-03-23d3t05.shn
272caed4b56b3894ca03c91da21b338d *gd81-03-23d3t06.shn
8f7a0d8c02460683d981f59edd32dbf8 *gd81-03-23d3t07.shn
89fe01c94eba2c4cc24490a06bee9175 *gd81-03-23d3t08.shn
st5
3214f6adc9c6496c9a1c3be01e2079f3 [shntool] gd81-03-23d1t01.shn
6acdfe74a26c9049cf451e8d088bc811 [shntool] gd81-03-23d1t02.shn
682518533a8850b592f0894388b01938 [shntool] gd81-03-23d1t03.shn
582f92b570df60b4d678ab9f34340549 [shntool] gd81-03-23d1t04.shn
c867346bb9f35d4d02300c0d01c9cea7 [shntool] gd81-03-23d1t05.shn
82d7c2c1f935ac74a432a74f488a2fec [shntool] gd81-03-23d1t06.shn
6df3dc2ff40d43b489f0468c963687d2 [shntool] gd81-03-23d1t07.shn
3aeab7f8cb7ca9bd4ad8d8c5d48ca9b7 [shntool] gd81-03-23d2t01.shn
64b23f0e19c04316be74dbcf08ca1395 [shntool] gd81-03-23d2t02.shn
4ca0a80ea98d434d5b6d52af7e49c94b [shntool] gd81-03-23d2t03.shn
e411119ee76d70a04840cebd1eabddc4 [shntool] gd81-03-23d2t04.shn
19046fa70df2eaed27e7a94766ef2c58 [shntool] gd81-03-23d2t05.shn
95812dac0855f5cbcffe3bc92f3889d4 [shntool] gd81-03-23d3t01.shn
f64db2eaf2277d23cadb7b52f9acb0ad [shntool] gd81-03-23d3t02.shn
d979f82732b2414d19a3dfc0f4eb9f30 [shntool] gd81-03-23d3t03.shn
05f36968f5012299588e5145bd34c723 [shntool] gd81-03-23d3t04.shn
235faf4227357aa7f106fabee09977fe [shntool] gd81-03-23d3t05.shn
3bab9a684d13047c671a4732bfdc3b57 [shntool] gd81-03-23d3t06.shn
b50b9ab31401370f8e43cb3142ac6a89 [shntool] gd81-03-23d3t07.shn
d1f742c72d5e2627cc32739f3689b18e [shntool] gd81-03-23d3t08.shn

Comments
Add Comment
Other Sources (comments)
AUD> MC> DAT> CD (1) flac16; Recording by... (0) flac16; Source Info:... (0) flac24; Source Info:... (0)
Date User Comment