Browse Collections Artists Sources   Search Dates

Add Show    List Management    Help


Grateful Dead 03/31/83
Warfield Theater, San Francisco, CA
Comments Add Comment    Source Collectors    Add to Collection    Add to Want List    History
Source # 32296 Other Sources
Entered by Matt Vernon
Checksums flac-md5 , ffp
Disc Counts 2 / 2
Media Size
Date Circulated
Date Added
02/05/2006
02/05/2006
Source Summary SBD > C(x5) > Sony TC-D5M > Soundblaster > WAV > Soundforge > CD-Wave > TLH v.1.0.0.72 (SBE-OK, checksums, Flac compression) > bt.etree 01/06. ; upgrade in circulation  
  Archive
Source Information - Download Text | Download Zip
GRATEFUL DEAD
Warfield Theater
San Francisco CA
03-31-1983

Soundboard source

Disc One (75:52)

01 tuning
02 Feel Like a Stranger
03 Friend of the Devil >
04 Little Red Rooster
05 Dupree's Diamond Blues
06 Me and My Uncle >
07 Big River
08 West LA Fadeaway
09 My Brother Esau
10 Don't Ease Me In
-- set break --
11 Lost Sailor >
12 Saint of Circumstance >
13 Far From Me

Disc Two (70:36)

01 Terrapin Station >
02 Drums >
03 Space >
04 The Other One >
05 Throwing Stones >
06 Wharf Rat >
07 Around and Around >
08 Good Lovin'
-- encore --
09 Brokedown Palace

Transfer:
SBD > C(x5) > Sony TC-D5M > Soundblaster > WAV > Soundforge > CD-Wave >
TLH v.1.0.0.72 (SBE-OK, checksums, Flac compression) > bt.etree 01/06.

Notes:
The transferred cassettes were marked "5th gen sbd", and judging from
the sound, this appears to be correct. The show is complete and the
sound quality is good considering the apparent number of generations in
the source. A slightly degraded sbd source provides certain parts of
the show: all of the "tuning" track before Stranger, and from 01:04 of
Drums thru 05:40 of The Other One. There's a brief cut in drums at the
source-change point, and a small cut in space that was presumably for
a tape flip. Soundforge was used to make fades, small edits, and smooth
out the areas around the tape flips. Thanks go to Jeff Harrison for the
source cassettes, and to Jake Feinberg for his tireless efforts to
track down new sources for etreers everywhere. ENJOY AND SMILE!


Shntool Output:

    length     expanded size   cdr  WAVE problems filename
     1:11.74       12698492    ---   --   ---xx   gd1983-03-31d1t01.flac
     7:59.05       84507404    ---   --   ---xx   gd1983-03-31d1t02.flac
     9:01.35       95514764    ---   --   ---xx   gd1983-03-31d1t03.flac
     8:57.57       94860908    ---   --   ---xx   gd1983-03-31d1t04.flac
     5:21.19       56669132    ---   --   ---xx   gd1983-03-31d1t05.flac
     3:12.21       33918236    ---   --   ---xx   gd1983-03-31d1t06.flac
     5:41.44       60255932    ---   --   ---xx   gd1983-03-31d1t07.flac
     6:33.27       69388748    ---   --   ---xx   gd1983-03-31d1t08.flac
     6:09.16       65129276    ---   --   ---xx   gd1983-03-31d1t09.flac
     3:24.14       36018572    ---   --   ---xx   gd1983-03-31d1t10.flac
     7:15.32       76809308    ---   --   ---xx   gd1983-03-31d1t11.flac
     6:48.56       72102956    ---   --   ---xx   gd1983-03-31d1t12.flac
     4:16.26       45219596    ---   --   ---xx   gd1983-03-31d1t13.flac
    12:50.69      135990332    ---   --   ---xx   gd1983-03-31d2t01.flac
     8:18.56       87978956    ---   --   ---xx   gd1983-03-31d2t02.flac
     8:41.12       91932668    ---   --   ---xx   gd1983-03-31d2t03.flac
     5:43.14       60538172    ---   --   ---xx   gd1983-03-31d2t04.flac
     7:42.16       81534476    ---   --   ---xx   gd1983-03-31d2t05.flac
     9:17.50       98372444    ---   --   ---xx   gd1983-03-31d2t06.flac
     4:08.65       43900124    ---   --   ---xx   gd1983-03-31d2t07.flac
     8:31.33       90218060    ---   --   ---xx   gd1983-03-31d2t08.flac
     5:22.42       56899628    ---   --   ---xx   gd1983-03-31d2t09.flac
   146:29.33     1550458184 B                     (totals for 22 files, 0.5600 overall compression ratio)

Show Checksums
flac-md5
dec5019c8b4fbdd0cfe1d00040132cbe *gd1983-03-31d1t01.flac
f919b679a5c1df7afbc475ade908b3dc *gd1983-03-31d1t02.flac
1150255e828510f8563e3ed2c15c5e5a *gd1983-03-31d1t03.flac
b71fa6e1225727fba8f18c0431e88d7d *gd1983-03-31d1t04.flac
6bf42d03b981aa33b970959348261ff4 *gd1983-03-31d1t05.flac
c72386eddc4ee58fe0897bd68697004f *gd1983-03-31d1t06.flac
a0b93c08f247c12b3c0ec0a615b3b17f *gd1983-03-31d1t07.flac
2cee6833972039a70e53fbd26411cf93 *gd1983-03-31d1t08.flac
2edb2f5b6835fcb94e6ab9081b6dd3f9 *gd1983-03-31d1t09.flac
ba9642db8775fe7c33d8fc49121bc4c2 *gd1983-03-31d1t10.flac
d0222664a0ee8d7bc0f44ee3f95cf495 *gd1983-03-31d1t11.flac
b058b160ec38410d867e99716c71b4d6 *gd1983-03-31d1t12.flac
934639e728694044697041e4e47069a6 *gd1983-03-31d1t13.flac
62c92f28c2b60414859c35b7702886af *gd1983-03-31d2t01.flac
79a4522bbf855dae423b84c8501f7141 *gd1983-03-31d2t02.flac
e301358f606f1f6eae3cfd69ff44ea38 *gd1983-03-31d2t03.flac
9fa0c85ce52c2e4f44c50ec3d2c4847f *gd1983-03-31d2t04.flac
985f49d5e09795e968ea9764de7980d7 *gd1983-03-31d2t05.flac
014736f41c395e451014a383c34362e8 *gd1983-03-31d2t06.flac
9f17f730ed5dec120c3f31d1a5676d7a *gd1983-03-31d2t07.flac
724341b563e032e57974ed04808247f3 *gd1983-03-31d2t08.flac
7fba7ff50ae4b83dd150c69bb3b5c56c *gd1983-03-31d2t09.flac
ffp
gd1983-03-31d1t01.flac:44870ea8658bbb65f92425762f6de2c4
gd1983-03-31d1t02.flac:804cd2469de8910c315abc42b1f586c1
gd1983-03-31d1t03.flac:20567caf5169b208164e2c777950dadf
gd1983-03-31d1t04.flac:4de0adcfac69bb1e51df146212abee56
gd1983-03-31d1t05.flac:58fd15f3cdd5cbb68d4fe2c0af85eaca
gd1983-03-31d1t06.flac:bc76283e5325e9fdf1a9aa23e98ad4b9
gd1983-03-31d1t07.flac:f4cc0bc1547b4791be6fa15762d5f184
gd1983-03-31d1t08.flac:adf9b87b2838ce3a600cac286a53e3aa
gd1983-03-31d1t09.flac:7f0df343c49d2f92cd3ae1f52b34d9ac
gd1983-03-31d1t10.flac:8e33d5b1e9b7d0a4f3ec2a66d1ecc4f6
gd1983-03-31d1t11.flac:57835eb2087775f0706c2adfd9701208
gd1983-03-31d1t12.flac:dc7dc459a2c1a5abeab1e05ff1c0fbff
gd1983-03-31d1t13.flac:9e247720c7de950cc677f0ce29eb2db0
gd1983-03-31d2t01.flac:70a32c7b831c45e78ae2f5d13ef05275
gd1983-03-31d2t02.flac:54c4a2f6a992fbcc02e22ec9503a06c0
gd1983-03-31d2t03.flac:04c69b457aaa543361070859d5d0a48d
gd1983-03-31d2t04.flac:bc75474f44fac222a8a0858230549868
gd1983-03-31d2t05.flac:425dce7770202a8efebea8a1a1fe00a4
gd1983-03-31d2t06.flac:42eabd6765b7af755a97db8a5d6c5b77
gd1983-03-31d2t07.flac:2be317e23ce759a2e644d05587759ed9
gd1983-03-31d2t08.flac:2ef45282458f2411b0489dc045bb46c4
gd1983-03-31d2t09.flac:f6041838882c16022700bb054e6f13bb

Comments
Add Comment
Other Sources (comments)
(FOB) Sennheiser 421 -> Cm... (0) flac16; SBD ->... (0) flac16; SBD ->... (0) flac16; Matrix by... (1)
Date User Comment
02/06/2006 Charlie Miller I njust circulated this sbd last week from a cassette that someone sent me. I don't know what gen it was, but maybe we can compare to see which one sounds better.

http://tmnsp.net/details.php?id=1331

cm
02/09/2006 Gary I listened to them both. I would say that they are from the same source. Your's might be slightly less hissy.