Browse Collections Artists Sources   Search Dates

Add Show    List Management    Help


Grateful Dead 12/06/81
Rosemont Horizon, Rosemont, IL
Comments Add Comment    Source Collectors    Add to Collection    Add to Want List    History
Source # 32317 Other Sources
Entered by Matt Vernon
Checksums ffp , flac-md5
Disc Counts 2 / 3
Media Size
Date Circulated
Date Added
02/08/2006
02/09/2006
Source Summary flac16;Recording by Doug Mow. 2 Nak 700 shotguns > Sony TC-D5M > Maxell MX 90 transferred by Doug Mow Conversion and seeding to bt.etree.org by Alex Ford 
  Archive
Source Information - Download Text | Download Zip
Grateful Dead - 12/06/81
Rosemont Horizon
Rosemont IL

Source: 2 Nak 700 shotguns > Sony TC-D5M > Maxell MX 90

Mic Config: mics pointed to stacks

Location: Second level, DFC

Taped and transferred by Doug Mow

Lineage: MAC > Sony TC-D5M > Edirol UA5 Custom Oade Mod > USB > IBM R40 > Sound Forge 5.0 > EAC (no errors) > WinXP Pro > Flac Frontend > FLAC16.

Conversion and seeding to bt.etree.org by Alex Ford. Sector boundaries verified with shntool. An EAC log is included with this fileset.

Set I:
d1t01 - New Minglewood Blues
d1t02 - Sugaree
d1t03 - Mama Tried >
d1t04 - Mexicali Blues
d1t05 - Candyman
d1t06 - Little Red Rooster
d1t07 - Tennessee Jed
d1t08 - Looks Like Rain
d1t09 - Jack-A-Roe
d1t10 - Beat It On Down the Line

Set II:
d1t11 - China Cat Sunflower >
d1t12 - I Know You Rider
d2t01 - Samson and Delilah
d2t02 - To Lay Me Down
d2t03 - Estimated Prophet >
d2t04 - Eyes of the World >
d2t05 - Drums >
d2t06 - Space >
d2t07 - Not Fade Away >
d2t08 - Wharf Rat >
d2t09 - Good Lovin'

Encore:
d2t10 - Brokedown Palace


Notes:
- d1t01 has a minor skip @ 2:45
- there is a gap in d1t05 4:54 and 5:21
- d2t04 has a minor skip @ 4:40


SHNTOOL LEN OUTPUT

    length     expanded size    cdr  WAVE problems  fmt   ratio  filename
     7:31.51       79676396 B   ---   --   ---xx   flac  0.4841  gd81-12-06d1t01.flac
    11:09.15      118046924 B   ---   --   ---xx   flac  0.5027  gd81-12-06d1t02.flac
     2:30.08       26478860 B   ---   --   ---xx   flac  0.5083  gd81-12-06d1t03.flac
     5:48.37       61474268 B   ---   --   ---xx   flac  0.4936  gd81-12-06d1t04.flac
     5:37.47       59557388 B   ---   --   ---xx   flac  0.4574  gd81-12-06d1t05.flac
     7:46.18       82244780 B   ---   --   ---xx   flac  0.4824  gd81-12-06d1t06.flac
     8:25.64       89232572 B   ---   --   ---xx   flac  0.4875  gd81-12-06d1t07.flac
     8:15.60       87459164 B   ---   --   ---xx   flac  0.4705  gd81-12-06d1t08.flac
     4:50.33       51233660 B   ---   --   ---xx   flac  0.4813  gd81-12-06d1t09.flac
     3:00.35       31834364 B   ---   --   ---xx   flac  0.5201  gd81-12-06d1t10.flac
     5:54.61       62589116 B   ---   --   ---xx   flac  0.5023  gd81-12-06d1t11.flac
     7:51.28       83150300 B   ---   --   ---xx   flac  0.5119  gd81-12-06d1t12.flac
     6:51.14       72533372 B   ---   --   ---xx   flac  0.4912  gd81-12-06d2t01.flac
     9:13.43       97650380 B   ---   --   ---xx   flac  0.4448  gd81-12-06d2t02.flac
    10:58.60      116212364 B   ---   --   ---xx   flac  0.4846  gd81-12-06d2t03.flac
     8:25.48       89194940 B   ---   --   ---xx   flac  0.4976  gd81-12-06d2t04.flac
     4:51.63       51480620 B   ---   --   ---xx   flac  0.4729  gd81-12-06d2t05.flac
     5:31.58       58524860 B   ---   --   ---xx   flac  0.4536  gd81-12-06d2t06.flac
     9:03.68       95945180 B   ---   --   ---xx   flac  0.5037  gd81-12-06d2t07.flac
     9:04.56       96093356 B   ---   --   ---xx   flac  0.4763  gd81-12-06d2t08.flac
     8:55.41       94470476 B   ---   --   ---xx   flac  0.5138  gd81-12-06d2t09.flac
     5:49.11       61589516 B   ---   --   ---xx   flac  0.4656  gd81-12-06d2t10.flac
   157:28.19     1666672856 B                            0.4863  (22 files)
Show Checksums
ffp
gd81-12-06d1t01.flac:6ea820ea6bc383aa6ce9e60f3c1cfb4b
gd81-12-06d1t02.flac:8aed90211ead12413b46c741cb173e13
gd81-12-06d1t03.flac:eceeeb3b6153526213b69c23bcd6ee6a
gd81-12-06d1t04.flac:e4347a935f452bc64dfcb90213893e2d
gd81-12-06d1t05.flac:55747391cbeab0fcb69953646efee6fb
gd81-12-06d1t06.flac:9b7ffaa66d31cbe802583d86ee721cad
gd81-12-06d1t07.flac:135bee04dbb39e7d245e0c6bef04c3b3
gd81-12-06d1t08.flac:4cbca7ae01b32017546e210ed9290375
gd81-12-06d1t09.flac:eabae361f64576518365d23425b718f9
gd81-12-06d1t10.flac:f26a81303d0747efe1df0d514e3aa809
gd81-12-06d1t11.flac:3fe5a07ed56dd3526d30a360fe158089
gd81-12-06d1t12.flac:120e8b8f286ea1578cb6b905c20661fc
gd81-12-06d2t01.flac:1d36c69904d385325395fe39713ad37e
gd81-12-06d2t02.flac:f37ff43cb8c072fb959734c267f069f0
gd81-12-06d2t03.flac:e80ae983185139c73688cc1a7661ef57
gd81-12-06d2t04.flac:01db13ee6e9544bbee01db66de6dc505
gd81-12-06d2t05.flac:f5bfa90aa553a60bcb7b57ef997fde05
gd81-12-06d2t06.flac:bdd477028739da2e74fcd898658540b8
gd81-12-06d2t07.flac:cf4611a1e82265134a8b2696dc3d4ac4
gd81-12-06d2t08.flac:b99080554604dcc7e51e08b4def3bfd1
gd81-12-06d2t09.flac:6d71264f8ae67818d2d0aa6aa6fcf309
gd81-12-06d2t10.flac:7c8bbf4ea767643c9702d42612663fa2
flac-md5
1f308376124d32390cfe88f846ee170f *gd81-12-06d1t01.flac
9ee998300b1778f7656b31bda341819b *gd81-12-06d1t02.flac
572e6dc0bfacc2a391ad837156f5e7f5 *gd81-12-06d1t03.flac
f22c7089da62a18a1a5e50169de86dc6 *gd81-12-06d1t04.flac
e22fa6a207d29fe74f24ef871f019789 *gd81-12-06d1t05.flac
5b321fe553962d22e1997f625d06123e *gd81-12-06d1t06.flac
593155c479a933541399af8fc77ba2f6 *gd81-12-06d1t07.flac
bcc79102e15519ba6356f9ae871d6c4c *gd81-12-06d1t08.flac
12adcc2c3ccd238e0e3ab26a0a681286 *gd81-12-06d1t09.flac
144fe626f08d2754662853bc31b06bdc *gd81-12-06d1t10.flac
b3c1e37678a5820a00d9b6fabeea7c19 *gd81-12-06d1t11.flac
c28fa7303a32daed46d06730cf8b184b *gd81-12-06d1t12.flac
a39c4f635463d179e32ca92aded2c194 *gd81-12-06d2t01.flac
6866ca4a7c7d5c366e60248f625b21d1 *gd81-12-06d2t02.flac
8ed578f4ac38ab5f356751464971ba61 *gd81-12-06d2t03.flac
a13ca541d517e502b6837395b551a5c9 *gd81-12-06d2t04.flac
cff403f1d81312ccf3b2b612fe409756 *gd81-12-06d2t05.flac
6a4721d71a51724e703bb338e5082122 *gd81-12-06d2t06.flac
8efe738e9186937b7260492cacbc1c3d *gd81-12-06d2t07.flac
a9fd72ecddc92d09005c5c25e600574d *gd81-12-06d2t08.flac
e711b0d924711f82a62ed86b8eacfdec *gd81-12-06d2t09.flac
7bea030e0300f7d06ab19aa4dbb843ef *gd81-12-06d2t10.flac

Comments
Add Comment
Other Sources (comments)
Unknown Aud>DAT>CDR; via... (0) flac16; AUD Master... (0) flac16; Recording... (0) flac16; Recorded by... (0) flac16; Recording... (1) flac24; AUD: First... (0) flac16; AUD: First... (0)
Date User Comment
02/09/2006 Albix note to admin: Set II begins with Samson and Delilah amd tracks 1-12 are all Set I. My mistake. Thanks.
02/09/2006 Charlie Miller I am very surprised how muddy and boomy this recording sounds.

cm