Browse Collections Artists Sources   Search Dates

Add Show    List Management    Help


Grateful Dead 10/14/83
Hartford Civic Center, Hartford, CT
Comments Add Comment    Source Collectors    Add to Collection    Add to Want List    History
Source # 32360 Other Sources
Entered by Matt Vernon
Checksums flac-md5 , ffp
Disc Counts 2 / 3
Media Size
Date Circulated
Date Added
02/12/2006
02/12/2006
Source Summary 2 Nak 700's>Sony TC-D5M>Maxell MX90 (1st set), TDK MA90 (2nd set) Taped and transferred by Doug Mow Conversion and seeding to bt.etree.org by Alex Ford 02/12/06 
  Archive
Source Information - Download Text | Download Zip
Grateful Dead
Date - 10/14/83
Hartford Civic Center
Hartford, CT

Source: 2 Nak 700's>Sony TC-D5M>Maxell MX90 (1st set), TDK MA90 (2nd set)

Mic Config: 10 feet high, pointed towards stacks

Location: 3 rows behind soundboard, DFC

Taped and transferred by Doug Mow

Lineage: MAC: Sony TC-D5M >Edirol UA5 Custom Oade Mod>USB>IBM R40>Sound Forge>CDR>EAC(no errors)>WinXP Pro>Flac Frontend>FLAC16.
Conversion and seeding to bt.etree.org by Alex Ford 02/12/06. Sector boundries verified with shntool. An EAC log is included with this fileset.

Disc 01
Set I:
d1t01 - Alabama Getaway >
d1t02 - Greatest Story Ever Told
d1t03 - They Love Each Other
d1t04 - Mama Tried >
d1t05 - Big River
d1t06 - Althea >
d1t07 - C.C. Rider,
d1t08 - Tennessee Jed,
d1t09 - Hell in a Bucket >
d1t10 - Keep Your Day Job

Disc 02
Set II:
d2t01 - Scarlet Begonias >
d2t02 - Fire on the Mountain
d2t03 - Estimated Prophet >
d2t04 - Eyes of the World
d2t05 - Drums >

Disc 03
(Set II cont):
d3t01 - Space >
d3t02 - The Other One >
d3t03 - Stella Blue >
d3t04 - Sugar Magnolia
Encore:
d3t05 - U.S. Blues

    length     expanded size   cdr  WAVE problems filename
     6:02.60       63997964    ---   --   ---xx   gd83-10-14d1t01.flac
     4:26.29       46990652    ---   --   ---xx   gd83-10-14d1t02.flac
     8:50.33       93569660    ---   --   ---xx   gd83-10-14d1t03.flac
     2:48.23       29689340    ---   --   ---xx   gd83-10-14d1t04.flac
     6:18.44       66782732    ---   --   ---xx   gd83-10-14d1t05.flac
     8:47.28       93028700    ---   --   ---xx   gd83-10-14d1t06.flac
     8:49.04       93325052    ---   --   ---xx   gd83-10-14d1t07.flac
     8:57.72       94896188    ---   --   ---xx   gd83-10-14d1t08.flac
     5:52.29       62161052    ---   --   ---xx   gd83-10-14d1t09.flac
     5:56.71       62965436    ---   --   ---xx   gd83-10-14d1t10.flac
    14:01.09      148373612    ---   --   ---xx   gd83-10-14d2t01.flac
    16:35.37      175605068    ---   --   ---xx   gd83-10-14d2t02.flac
    13:09.09      139200812    ---   --   ---xx   gd83-10-14d2t03.flac
    17:33.69      185911532    ---   --   ---xx   gd83-10-14d2t04.flac
     4:03.68       43025180    ---   --   ---xx   gd83-10-14d2t05.flac
    11:04.07      117146108    ---   --   ---xx   gd83-10-14d3t01.flac
     8:19.46       88131836    ---   --   ---xx   gd83-10-14d3t02.flac
     8:56.36       94635116    ---   --   ---xx   gd83-10-14d3t03.flac
     9:23.38       99402620    ---   --   ---xx   gd83-10-14d3t04.flac
     5:42.62       60474668    ---   --   ---xx   gd83-10-14d3t05.flac
   175:40.24     1859313328 B                     (totals for 20 files, 0.5711 overall compression ratio)

Show Checksums
flac-md5
6ed1bc20fbe9d674c7e5b75617fa7f62 *gd83-10-14d1t01.flac
259094da7966315ed5cefbfe86aadfba *gd83-10-14d1t02.flac
feb07be7c1ff3b9a99e6baa5d65e8884 *gd83-10-14d1t03.flac
26691c4ae7a54ffbc33024b82168f073 *gd83-10-14d1t04.flac
0469c9fbf9bdc2bbbdfc42dd752e0607 *gd83-10-14d1t05.flac
3eab9ca816d622a933e9d7df577a893c *gd83-10-14d1t06.flac
96e8c2339bc8c272b1c478439ba51fd1 *gd83-10-14d1t07.flac
e8f91b484edfd05c5f94308249c4bcdc *gd83-10-14d1t08.flac
d3db27772079b887adc7af8ba61d4df5 *gd83-10-14d1t09.flac
59bb1740358be201e36eb307572a7b85 *gd83-10-14d1t10.flac
076bf0f4a245328370878c431b8111e4 *gd83-10-14d2t01.flac
305378ba66006f8b541c1fc372233af7 *gd83-10-14d2t02.flac
65f3c94fd8e4dbfb5de9b54e4b7ccb05 *gd83-10-14d2t03.flac
c99f86b3da8111e607ce99424a8e16c7 *gd83-10-14d2t04.flac
a7aa101cef9a1307ccea879792594827 *gd83-10-14d2t05.flac
e91e9c8498caf537c8564dc0133c2946 *gd83-10-14d3t01.flac
a147554ee2d594cf6c4ace304685189c *gd83-10-14d3t02.flac
c0215e1216080ee6918c170714fd7f55 *gd83-10-14d3t03.flac
6f13509d97345732b2c83fdd1dbe25e1 *gd83-10-14d3t04.flac
3bdf98d0d0de84485eb4e0a8dda4020a *gd83-10-14d3t05.flac
ffp
gd83-10-14d1t01.flac:4d54a8d3d9a82bcd48476dfde1467486
gd83-10-14d1t02.flac:53da6547c99eee520932131330997317
gd83-10-14d1t03.flac:2386d578cbbebd3da2ec1cf1ac3e6087
gd83-10-14d1t04.flac:4ab0161db2428838b57704745b1b394b
gd83-10-14d1t05.flac:77954cfb2888156e4a91048e807c53bd
gd83-10-14d1t06.flac:efb64dd52fd6163030734da8043876ee
gd83-10-14d1t07.flac:167914955376159fb45232d91b64c145
gd83-10-14d1t08.flac:7557b6587c302257c9ee40c11a105541
gd83-10-14d1t09.flac:a193c71acda3b2cd8e72f233c3b7f236
gd83-10-14d1t10.flac:c49fabb13379d1eb6d6d20d964293e9e
gd83-10-14d2t01.flac:4a9b54936f9b1ce67fd2782808999ce1
gd83-10-14d2t02.flac:fa530e32ac50caedf0dfbdd3467922c9
gd83-10-14d2t03.flac:af94e15e8781f8133c0b5033c4b1c76a
gd83-10-14d2t04.flac:25601985f7ea4c228e45a4c82b5601be
gd83-10-14d2t05.flac:f3b885dca358cbffe53eaf326347417f
gd83-10-14d3t01.flac:eec95250d1748b08b18f88cb8ca73241
gd83-10-14d3t02.flac:89a66840ca25e2b83910e333170b6f70
gd83-10-14d3t03.flac:fbb53d99193c8453b296e0dc28388c21
gd83-10-14d3t04.flac:f9c9c52a566173744c93b5a8f95463e8
gd83-10-14d3t05.flac:0a5163f83e17515e151c5e1a77dceee3

Comments
Add Comment
Other Sources (comments)
3 ATM 11 (tapers section) >... (0) Ficca FOB Sony TCD5M with 2... (1) flac16; Lineage:... (0) flac16; Nakamichi... (0) flac16; Recording... (0) flac24;nak 300/cp4... (1) flac24; Nakamichi... (0) flac24; Updated... (0) flac16; AUD:... (0) flac24; Master... (0) flac16; Master... (0) flac24; Partial Set... (0) flac16; Partial Set... (0)
Date User Comment
02/13/2006 Albix This source was never seeded to bt.etree.org, show is a Dick's Pick.
02/13/2006 Bob seeing as how these other 2 aud sources are available on lma I don't think it would be a problem to seed this one.

[url]http://www.archive.org/audio/etree-details-db.php?id=15385[/url]

[url]http://www.archive.org/audio/etree-details-db.php?id=15386[/url]

many people reference this letter and still trade sbd sources that have been dp'd

[url]http://userpages.umbc.edu/~hamilton/gdp.txt[/url]
02/13/2006 Bob well now that I read that letter on this page it looks different than one I had seen b4. but it still allows for auds to be traded
02/14/2006 Albix Thanks, then I will seed it soon.