Browse Collections Artists Sources   Search Dates

Add Show    List Management    Help


Grateful Dead 05/13/83
Greek Theatre, U. Of California, Berkeley, CA
Comments Add Comment    Source Collectors    Add to Collection    Add to Want List    History
Source # 32809 Other Sources
Entered by Matt Vernon
Checksums flac-md5 , ffp
Disc Counts 2 / 3
Media Size
Date Circulated
Date Added
03/19/2006
03/20/2006
Source Summary flac16; 2 Nak 700's > Bass Box EQ > Sony D5 > Sony D5 > Maxell MX 90's Taper: unknown Mark McCue Master Transfer by Mark McCue  
  Archive
Source Information - Download Text | Download Zip
Grateful Dead
Date 05/13/83
Greek Theatre
Berkeley, CA

Source: 2 Nak 700's > Bass Box EQ > Sony D5 > Sony D5 > Maxell MX 90's

Taper: unknown
Mark McCue Master

Transfer: 1st gen Cassettes>Sony D5>Tascam Stand Alone burner(tracked on the fly)>EAC> HD>CDR>
               EAC>Flac Frontend>FLAC16

Transfer by Mark McCue. Sector boundaries verified with TLH.
EAC, conversion, and seeding to bt.etree.org by Alex Ford


Disc 1
Set I:

01. Cold Rain And Snow  
02. Greatest Story Ever Told
03. West L.A. Fadeaway
04. Hell In A Bucket
05. Loser
06. Little Red Rooster
07. Bird Song
08. Let It Grow

Disc 2
Set II:

01. China Cat Sunflower ->
02. I Know You Rider ->
03. Estimated Prophet ->
04. Eyes Of The World ->


Disc 3 Set II (cont):

01. Space ->
02. Throwing Stones ->
03. The Other One ->
04. Wharf Rat ->
05. Around And Around ->
06. Good Lovin'

Note:

- disc03 track05 Drums is missing.
- Good Lovin' is cut at the end.
- There was no encore

Shntool Output:

length     expanded size   cdr  WAVE problems filename
      7:09.53       75800300    ---   --   -----    gd1983-05-13d1t01.wav
      4:55.11       52063916    ---   --   -----    gd1983-05-13d1t02.wav
      8:36.46       91130636    ---   --   -----    gd1983-05-13d1t03.wav
      6:29.44       68723132    ---   --   -----    gd1983-05-13d1t04.wav
      7:06.18       75188780    ---   --   -----    gd1983-05-13d1t05.wav
      8:50.17       93532028    ---   --   -----    gd1983-05-13d1t06.wav
     10:51.37      114923468  ---   --   -----    gd1983-05-13d1t07.wav
     12:43.06      134607356   ---   --   -----   gd1983-05-13d1t08.wav
      8:48.71       93306236    ---   --   -----   gd1983-05-13d2t01.wav
      6:48.28       72037100    ---   --   -----   gd1983-05-13d2t02.wav
     11:57.54      126605852  ---   --   -----   gd1983-05-13d2t03.wav
     19:18.24      204327692  ---   --   -----   gd1983-05-13d2t04.wav
      8:09.49       86374892    ---   --   -----  gd1983-05-13d3t01.wav
     13:43.69      145339532  ---   --   -----  gd1983-05-13d3t02.wav
      8:10.09       86457212    ---   --   -----  gd1983-05-13d3t03.wav
      8:59.00       95079644    ---   --   -----  gd1983-05-13d3t04.wav
      4:51.73       51504140    ---   --   -----  gd1983-05-13d3t05.wav
      8:32.20       90363884    ---   --   -----  gd1983-05-13d3t06.wav
    166:02.29     1757365800 B                    (totals for 18 files, 1.0000 overall compression ratio)
Show Checksums
flac-md5
a327752977f7dfb37638a4203a2f7190 *gd1983-05-13d1t01.flac
79e9307e0360eaee70c8edb496ba0cc8 *gd1983-05-13d1t02.flac
ac3bd258e73a3f9dd0f69381cf3c1f88 *gd1983-05-13d1t03.flac
5f2780e4184504d9f20b51912d167007 *gd1983-05-13d1t04.flac
c5cad8db8edf73c20186961a4f1bc766 *gd1983-05-13d1t05.flac
39467ad9b9ba385d47532a7d24525972 *gd1983-05-13d1t06.flac
bb1391cc11651f1a9423eaea8f385306 *gd1983-05-13d1t07.flac
60e7371c1727041c23b715ab584b29b1 *gd1983-05-13d1t08.flac
581744ac51c3f61c63b64aa639cc695f *gd1983-05-13d2t01.flac
a4b176d7fff3922dd3826227cf55a4e7 *gd1983-05-13d2t02.flac
817f37fee9fafbb2d52774780767a94c *gd1983-05-13d2t03.flac
abeed8afebcbe5ddde2361bbdfda3512 *gd1983-05-13d2t04.flac
fc65dd4485c4da0a74b335d7fb99cd7e *gd1983-05-13d3t01.flac
e8d5074670ea7af9732f93b581839de7 *gd1983-05-13d3t02.flac
0d777b32c6c61e472564780d837a1124 *gd1983-05-13d3t03.flac
1ff5f21c7ce1a6d95f0c61ca626f652f *gd1983-05-13d3t04.flac
30d143b28276522d73297ad440f36057 *gd1983-05-13d3t05.flac
fdef1bbd53cd2670c6d55d6be545bfde *gd1983-05-13d3t06.flac
ffp
gd1983-05-13d1t01.flac:9108ed130643e205d74fe44d8f8fc83c
gd1983-05-13d1t02.flac:c823fc22f21342e64389d72969e9381f
gd1983-05-13d1t03.flac:391d073dd2b54358cb7dcf5868064a33
gd1983-05-13d1t04.flac:166b6718a707088b5ae8f3d84070824f
gd1983-05-13d1t05.flac:aebec8b0438532d65581066cd0c88bf6
gd1983-05-13d1t06.flac:bcd98fabc89a3efa316f0c7213d95a42
gd1983-05-13d1t07.flac:89e14b798f0d37fd12a7d7826e123cd9
gd1983-05-13d1t08.flac:62f9db8e05502b4a5a0ef3e56c392915
gd1983-05-13d2t01.flac:60cec8a56415cb22c945ef86d43ff3fb
gd1983-05-13d2t02.flac:fd9adaf939f5cab8fc570b54679cf671
gd1983-05-13d2t03.flac:9d1ab5ba9c85b199fb41fc6592732d55
gd1983-05-13d2t04.flac:c8774345bfd252a4cc2d4659b0fc8951
gd1983-05-13d3t01.flac:dd5daa7466b05ed381e6da992733bc1f
gd1983-05-13d3t02.flac:d3b6dd133933a58a77f68ac0ec6daf23
gd1983-05-13d3t03.flac:61e8a4f401118210234d69c12aca92f4
gd1983-05-13d3t04.flac:5081485f11e4e92fc81fdb903d979134
gd1983-05-13d3t05.flac:62fbccc2b07f65a38c146374aab70933
gd1983-05-13d3t06.flac:4e67950de85d4e33f15a7425892c90d1

Comments
Add Comment
Other Sources (comments)
FOB Sony Mics > D5 > DAT;... (0) FOB Sony... (1) Set 1 Recording Info: SBD... (1) flac16; Recording... (0) flac16; Recording... (0) flac16; Recording... (0) flac16; Audience... (0)
Date User Comment
03/21/2006 Albix source update -

- Good Lovin' is from shnid 18224 and is cut at end.(http://db.etree.org/shninfo_detail.php?shnid=18224)
12/04/2008 Albix This source could actually be:

3 nak 700's (2 cardiod, one omni) > Bass Box EQ > patchbay > D6 > D5 > Maxell MX 90's