Browse Collections Artists Sources   Search Dates

Add Show    List Management    Help


Grateful Dead 12/31/81
Oakland Auditorium Arena, Oakland, CA
Comments Add Comment    Source Collectors    Add to Collection    Add to Want List    History
Source # 331 Other Sources
Entered by dr.unclear
Checksums shn-md5 , st5
Disc Counts 3 / 4
Media Size
Date Circulated
Date Added
1/19/00
02/07/2001
Source Summary Reels > Cass > Dat > CDR; via G. Lanum; 8/00: note tracklist now apparently corrected here from what had been listed originally; see pub comments for flaw notes.; upgrade in circulation 
  Archive
Source Information - Download Text | Download Zip
Grateful Dead - 12-31-81
Oakland Auditorium Arena
Oakland, CA

Master Reels > cass > dat > cdr

Acoustic set w/ Joan Baez
d1t01 - Me and Bobby Mcgee
d1t02 - Bye Bye Love
d1t03 - Lucifer's Eyes
d1t04 - Children Of The 80's
d1t05 - Banks Of The Ohio

Set 1:
d1t06 - Shakedown Street
d1t07 - Me and My Uncle >
d1t08 - Mexicali Blues
d1t09 - Cold Rain and Snow
d1t10 - C.C. Rider
d1t11 - It Must Have Been The Roses
d2t01 - Beat It On Down The Line
d2t02 - Big Boss Man >
d2t03 - New Minglewood Blues
d2t04 - Don't Ease Me In

Set 2:
d2t05 - New Year Celebration with Ken Kesey
d2t06 - Iko Iko
d2t07 - Playin In The Band >
d2t08 - Terrapin Station >
d3t01 - Playin In The Band >
d3t02 - Drums > Space >
d3t03 - The Other One >
d3t04 - Not Fade Away >
d3t05 - Goin' Down The Road Feeling Bad >
d3t06 - Morning Dew

Set 3:
d4t01 - Dark Star >
d4t02 - Bertha >
d4t03 - Good Lovin

Encore:
d4t04 - It's All Over Now, Baby Blue*

* - w/ joan baez


SHNTOOL LEN OUTPUT

    length     expanded size    cdr  WAVE problems  fmt   ratio  filename
     5:00.01       52922396 B   ---   --   ---xx    shn  0.6092  gd81-12-13d1track01.wav.shn
     2:55.25       30928844 B   ---   --   ---xx    shn  0.6199  gd81-12-13d1track02.wav.shn
     4:53.69       51847532 B   ---   --   ---xx    shn  0.5937  gd81-12-13d1track03.wav.shn
     6:19.49       66970892 B   ---   --   ---xx    shn  0.6123  gd81-12-13d1track04.wav.shn
     4:45.17       50314028 B   ---   --   ---xx    shn  0.6376  gd81-12-13d1track05.wav.shn
    16:05.65      170378924 B   ---   --   ---xx    shn  0.6093  gd81-12-13d1track06.wav.shn
     3:01.53       32053100 B   ---   --   ---xx    shn  0.6406  gd81-12-13d1track07.wav.shn
     4:44.06       50111756 B   ---   --   ---xx    shn  0.6307  gd81-12-13d1track08.wav.shn
     6:24.25       67796444 B   ---   --   ---xx    shn  0.6247  gd81-12-13d1track09.wav.shn
     9:40.38      102401420 B   ---   --   ---xx    shn  0.5978  gd81-12-13d1track10.wav.shn
     6:26.21       68139836 B   ---   --   ---xx    shn  0.5814  gd81-12-13d1track11.wav.shn
     3:36.66       38257676 B   ---   --   ---xx    shn  0.6429  gd81-12-31d2track01.wav.shn
     5:56.00       62798444 B   ---   --   ---xx    shn  0.5876  gd81-12-31d2track02.wav.shn
     6:17.28       66568700 B   ---   --   ---xx    shn  0.6313  gd81-12-31d2track03.wav.shn
     3:24.63       36133820 B   ---   --   ---xx    shn  0.5983  gd81-12-31d2track04.wav.shn
     6:09.70       65256284 B   ---   --   ---xx    shn  0.6484  gd81-12-31d2track05.wav.shn
     8:54.11       94223516 B   ---   --   ---xx    shn  0.6366  gd81-12-31d2track06.wav.shn
    14:33.06      154011356 B   ---   --   ---xx    shn  0.6301  gd81-12-31d2track07.wav.shn
    14:50.58      157132460 B   ---   --   ---xx    shn  0.6172  gd81-12-31d2track08.wav.shn
     2:02.13       21551420 B   ---   --   ---xx    shn  0.6326  gd81-12-31d3track01.wav.shn
    23:45.32      251445308 B   ---   --   ---xx    shn  0.5010  gd81-12-31d3track02.wav.shn
     7:14.37       76644668 B   ---   --   ---xx    shn  0.6246  gd81-12-31d3track03.wav.shn
     4:12.12       44481068 B   ---   --   ---xx    shn  0.6164  gd81-12-31d3track04.wav.shn
     6:49.19       72192332 B   ---   --   ---xx    shn  0.6299  gd81-12-31d3track05.wav.shn
    11:23.42      120580028 B   ---   --   ---xx    shn  0.5782  gd81-12-31d3track06.wav.shn
    15:38.20      165510284 B   ---   --   ---xx    shn  0.5738  gd81-12-31d4track01.wav.shn
     6:26.63       68238620 B   ---   --   ---xx    shn  0.6697  gd81-12-31d4track02.wav.shn
     9:54.45      104887484 B   ---   --   ---xx    shn  0.6422  gd81-12-31d4track03.wav.shn
     7:40.14       81176972 B   ---   --   ---xx    shn  0.5529  gd81-12-31d4track04.wav.shn
   229:06.68     2424955612 B                            0.6016  (29 files)
Show Checksums
shn-md5
55745506216e97428aa79392e2fa8c37 *gd81-12-13d1Track11.wav.shn
599787a23f37d450d76d5f51268a8fb3 *gd81-12-13d1Track04.wav.shn
02e6fd032600eecb307147796ee6be77 *gd81-12-13d1Track02.wav.shn
1f32e47a4c0430ad68561db26b3ffe29 *gd81-12-13d1Track03.wav.shn
59cc965bf003b6e0fb48383224e69981 *gd81-12-13d1Track06.wav.shn
9c33ef91b3312570ec3010295e314b48 *gd81-12-13d1Track05.wav.shn
b7f57b349bdb1651f02bdf98115c415d *gd81-12-13d1Track07.wav.shn
18ec7c1ce1e4f49c4ef7dee3cb400b27 *gd81-12-13d1Track08.wav.shn
d2e2f6495b37745588ec4a05f0e344e1 *gd81-12-13d1Track09.wav.shn
22e7149d6461c0fc207344ac2e39a564 *gd81-12-13d1Track10.wav.shn
144e181352c3604d8a6aba6d5a17158a *gd81-12-13d1Track01.wav.shn
691c0ed010f9fe49f28caf74c35a49d6 *gd81-12-31d2Track08.wav.shn
abc929b894b87c76a06c706f6816ec95 *gd81-12-31d2Track02.wav.shn
df66e3abb29546539893baa7de6027ed *gd81-12-31d2Track04.wav.shn
d38de5e174240924f898c9aaf100c674 *gd81-12-31d2Track06.wav.shn
00837bc64fafe5f1f0f8c6a8a45cc2c5 *gd81-12-31d2Track07.wav.shn
f2c9f282797fd98529c6f45c939c88a7 *gd81-12-31d2Track03.wav.shn
bd518e6f9260e9ab57c107324f1ce32e *gd81-12-31d2Track01.wav.shn
1ff39cbca814932f62b57f0b8c4eb688 *gd81-12-31d2Track05.wav.shn
1d5728f7c44a5c49b3f74a41afb8df73 *gd81-12-31d3Track06.wav.shn
b0000d26dd2a2497dd66f7f0955b5544 *gd81-12-31d3Track02.wav.shn
8b46aa9ebbb9de79ece1feb52682f67f *gd81-12-31d3Track03.wav.shn
1833b1151cb7ec0a6d670c22cff8abce *gd81-12-31d3Track04.wav.shn
9964b81ae618e501c82f249f44792069 *gd81-12-31d3Track05.wav.shn
cd557836143a098f2edb340372528de1 *gd81-12-31d3Track01.wav.shn
551b7767b81db993cfd4de4ccff880e0 *gd81-12-31d4Track04.wav.shn
2bf198441de5de6b4f8ab863b0e0992c *gd81-12-31d4Track02.wav.shn
01853cda34c7ca574162506de8436b49 *gd81-12-31d4Track03.wav.shn
7e247bb10fadcd5c21d5c7c64baed364 *gd81-12-31d4Track01.wav.shn
st5
fbdea59c30f5a817826b2be533ba936d [shntool] gd81-12-13d1Track01.wav.shn
04f8051e6b6ce7071b7ea70c35212773 [shntool] gd81-12-13d1Track02.wav.shn
8944bffde4460f6c46659d31d30fcf7d [shntool] gd81-12-13d1Track03.wav.shn
82a6c0be40cfb02debff8f7874ca961f [shntool] gd81-12-13d1Track04.wav.shn
ffbe7c78f9f8d2dd8e5bd6d076462801 [shntool] gd81-12-13d1Track05.wav.shn
9ae92bc58db8d1b6585abed1e38a2ccd [shntool] gd81-12-13d1Track06.wav.shn
030e3ca36f410ace59a5bc755fcdc860 [shntool] gd81-12-13d1Track07.wav.shn
9cebe3680d5dade3808c2e4c7b4d9c08 [shntool] gd81-12-13d1Track08.wav.shn
2b33d304edd5618b5f4addebb493d329 [shntool] gd81-12-13d1Track09.wav.shn
bceee05766659376c7ff0385f370e6f0 [shntool] gd81-12-13d1Track10.wav.shn
a7536b602cbfd3a3d93a5ec252623c8d [shntool] gd81-12-13d1Track11.wav.shn
9566136953142dee6237992129771917 [shntool] gd81-12-31d2Track01.wav.shn
161a973627dfdd6333fb5e67ce99d504 [shntool] gd81-12-31d2Track02.wav.shn
27de8f893d557154f8c85b3ce95dddcf [shntool] gd81-12-31d2Track03.wav.shn
8209777b03a456af7211742973df464d [shntool] gd81-12-31d2Track04.wav.shn
6d69df79b4f98b5b3f258babcf72a5ef [shntool] gd81-12-31d2Track05.wav.shn
9dc30846fc9cdbe86ce5f0e25197922a [shntool] gd81-12-31d2Track06.wav.shn
cb5e03659571190bbe312f1b8d041ed2 [shntool] gd81-12-31d2Track07.wav.shn
e08a64475c7abfb6ebc49527c65c9145 [shntool] gd81-12-31d2Track08.wav.shn
4564c8419d23c3aa2fbc0124c8e2cad6 [shntool] gd81-12-31d3Track01.wav.shn
81463a48c94b108abcde3eaf6811a555 [shntool] gd81-12-31d3Track02.wav.shn
f1abf87e8d78dac2a4d02975fad45101 [shntool] gd81-12-31d3Track03.wav.shn
368801037fd3db07dc606b17d23c87ef [shntool] gd81-12-31d3Track04.wav.shn
8f593fd6dcac21d76425c554df4aad8e [shntool] gd81-12-31d3Track05.wav.shn
401480ad1b2ffe2719569c5d9bf576ce [shntool] gd81-12-31d3Track06.wav.shn
fc95ee5b30478372bd6ef337476d9fc0 [shntool] gd81-12-31d4Track01.wav.shn
46d5f3bca27be305e7c8ee910eb6c885 [shntool] gd81-12-31d4Track02.wav.shn
32ea4084fbcaf03ce908dc2a9f5df68b [shntool] gd81-12-31d4Track03.wav.shn
7037939078673329d318b8f8de1dbfa5 [shntool] gd81-12-31d4Track04.wav.shn

Comments
Add Comment
Other Sources (comments)
electric sets; Monitor... (4) Jay Ashley (Bertha)... (14) Acoustic set only (w/ Joan... (0) Master... (1) flac16; SBD>... (0) flac16; Recording by... (0) flac16; Recording... (0) flac24; Recording... (0) flac16; Recording... (0) flac24; Recording... (0) flac16; Lineage: Nak... (0) flac16; Matrix 3... (0)
Date User Comment
10/12/2000 Dan Stephens disc 2 ends with an abrupt cut at terrapin. disc 3 begins with a digi-blast and cuts in to Playin' Resprise. It is difficult to tell how much is lost...