Browse Collections Artists Sources   Search Dates

Add Show    List Management    Help


Drive-By Truckers 01/24/04
Star Bar, Atlanta, GA
Comments Add Comment    Source Collectors    Add to Collection    Add to Want List    History
Source # 33188 Other Sources
Entered by Kyle pike
Checksums ffp
Disc Counts 0 / 0
Media Size
Date Circulated
Date Added
2005-08-29
03/26/2006
Source Summary KM-184 > V2> SBM-1 (Sloan Simpson) 
  Archive
Source Information - Download Text | Download Zip
Drive-By Truckers - 1/24/04
Star Community Bar - Atlanta, GA

Disc One:

01) Where The Devil Don't Stay
02) {Patterson Reads The Liner Notes}
03) Tornadoes
04) The Day John Henry Died
05) Puttin' People On The Moon
06) Carl Perkins' Cadillac
07) Sands Of Iwo Jima
08) Danko/Manuel
09) The Boys From Alabama
10) Cottonseed
11) The Buford Stick
12) Daddy's Cup
13) Lookout Mountain

Disc Two:

01) Goddamn Lonely Love
02) Little Pony And The Great Big Horse
03) II:) {Technical Difficulties}
04) The Living Bubba*
05) Play It All Night Long
06) Decoration Day
07) Zip City
08) Bulldozers And Dirt**
09) Outfit
10) Women Without Whiskey
11) Let There Be Rock
12) E:) I'm Eighteen
13) Buttholeville**

* w/ Wendy Musick - backing vocal
** w/ Jim Stacy - harmonica

www.drivebytruckers.com

Patterson Hood - guitar, vocal
Mike Cooley - guitar, vocal
Jason Isbell - guitar, vocal
Shonna Tucker - bass, vocal
Brad "The EZB" Morgan - drums


Source: Neumann KM-184(DIN)> Lunatec V2> Sony SBM-1

Transfer: Tascam DA-P1> S/PDIF> Ego-Sys U2A> Cool Edit Pro(DSP)> CDWave> FLAC Frontend

Taped and transferred by Sloan Simpson

DBT2004-01-24D1T01.flac:663dacd268fb8c6d75cce4cd9c9dff35
DBT2004-01-24D1T02.flac:ec8bf5678166f5d6d7fc784c0937e80b
DBT2004-01-24D1T03.flac:3b53e642861c8876649226210517b16b
DBT2004-01-24D1T04.flac:1f7a6ecdd82f5714df8e87d303c76cb2
DBT2004-01-24D1T05.flac:4e3bab409ffaa7edfc0a9dac6afe8a6a
DBT2004-01-24D1T06.flac:060a0e61d186f77db4ac3ee20acaec82
DBT2004-01-24D1T07.flac:bbd4911506abfaed91b75c4b347e7213
DBT2004-01-24D1T08.flac:cb757b163f0e3de479fa6be060392621
DBT2004-01-24D1T09.flac:79035227a1570225ebccf41ecd87c620
DBT2004-01-24D1T10.flac:dbe1ad2cc719eae052dd02ec02e3a3ad
DBT2004-01-24D1T11.flac:ead66329573395250a7e2a03284c48f9
DBT2004-01-24D1T12.flac:0d550d8d94987d6c34e8d158ca9884e1
DBT2004-01-24D1T13.flac:dc8179f3928d1ff3c1bb0722e3a9d31e
DBT2004-01-24D2T01.flac:842aefe23006655fe86d141c9b4d0f1d
DBT2004-01-24D2T02.flac:c356ff4c3343654d6b2b9d941314b2ab
DBT2004-01-24D2T03.flac:e22a9e582b83f9a9c40224496fe32492
DBT2004-01-24D2T04.flac:5e9c6721142f69fefc8ee8aadc9e0f13
DBT2004-01-24D2T05.flac:d0ac1030a478935d4afd2ad85de7c91d
DBT2004-01-24D2T06.flac:0ae788a7b7e2ff92d6e2c04a6ac07db7
DBT2004-01-24D2T07.flac:9de5904df087e13de7b1edc1bffcb0fb
DBT2004-01-24D2T08.flac:cf01835161a6efbbaecabc0bb4c14720
DBT2004-01-24D2T09.flac:dcc016fd3480cf67abe85a58988273c1
DBT2004-01-24D2T10.flac:32810c7db80aea80f73637e3fe4dbf81
DBT2004-01-24D2T11.flac:f708bce0b62a0735c0673ef4054cf4b1
DBT2004-01-24D2T12.flac:bae4e4640c1971c598064303c05c8b86
DBT2004-01-24D2T13.flac:88157b56271e6504d50eb11471cf4b0d

    length     expanded size   cdr  WAVE problems filename
     7:17.60       77227964    ---   --   ---xx   DBT2004-01-24D1T01.flac
     2:41.40       28494524    ---   --   ---xx   DBT2004-01-24D1T02.flac
     4:52.60       51649964    ---   --   ---xx   DBT2004-01-24D1T03.flac
     3:22.12       35661068    ---   --   ---xx   DBT2004-01-24D1T04.flac
     5:01.45       53202284    ---   --   ---xx   DBT2004-01-24D1T05.flac
     8:27.63       89583020    ---   --   ---xx   DBT2004-01-24D1T06.flac
     5:34.17       58957628    ---   --   ---xx   DBT2004-01-24D1T07.flac
     6:21.45       67314284    ---   --   ---xx   DBT2004-01-24D1T08.flac
     7:43.42       81772028    ---   --   ---xx   DBT2004-01-24D1T09.flac
     6:13.32       65872508    ---   --   ---xx   DBT2004-01-24D1T10.flac
     5:04.00       53625644    ---   --   ---xx   DBT2004-01-24D1T11.flac
    11:15.09      119091212    ---   --   ---xx   DBT2004-01-24D1T12.flac
     5:19.02       56276348    ---   --   ---xx   DBT2004-01-24D1T13.flac
     5:48.20       61434284    ---   --   ---xx   DBT2004-01-24D2T01.flac
     4:14.40       44899724    ---   --   ---xx   DBT2004-01-24D2T02.flac
     5:04.70       53790284    ---   --   ---xx   DBT2004-01-24D2T03.flac
     6:24.39       67829372    ---   --   ---xx   DBT2004-01-24D2T04.flac
     5:15.30       55636604    ---   --   ---xx   DBT2004-01-24D2T05.flac
     7:03.21       74666636    ---   --   ---xx   DBT2004-01-24D2T06.flac
     5:39.61       59943116    ---   --   ---xx   DBT2004-01-24D2T07.flac
     5:32.08       58583660    ---   --   ---xx   DBT2004-01-24D2T08.flac
     5:02.28       53338700    ---   --   ---xx   DBT2004-01-24D2T09.flac
     4:18.73       45682940    ---   --   ---xx   DBT2004-01-24D2T10.flac
     8:59.70       95244284    ---   --   ---xx   DBT2004-01-24D2T11.flac
     4:40.15       49427324    ---   --   ---xx   DBT2004-01-24D2T12.flac
     9:45.44      103297532    ---   --   ---xx   DBT2004-01-24D2T13.flac
   157:04.46     1662502936 B                     (totals for 26 files, 0.5582 o
verall compression ratio)
Show Checksums
ffp
4985e4d1462c339cc0704884d19e3296 *DBT2004-01-24D1T01.flac
77c5339e8feda8b19a2ffe92325a127f *DBT2004-01-24D1T02.flac
548d00097f347a1d3105d8ec3f52ecc7 *DBT2004-01-24D1T03.flac
2d1bda1931abcfc6aea52683cf31cd01 *DBT2004-01-24D1T04.flac
193453192cdee6b4e3ad3fa1aa4b5e30 *DBT2004-01-24D1T05.flac
5dacc5885bf8b3a8564f6abc0e28402c *DBT2004-01-24D1T06.flac
4cc9cce9ab67e76b5f53dd40a70ca26c *DBT2004-01-24D1T07.flac
04298a7ca58a0b4c7a6106873ce5813b *DBT2004-01-24D1T08.flac
485ccd304b92166f18ae112d8f0d23f5 *DBT2004-01-24D1T09.flac
82b04165decd083526a4a24c50b4542f *DBT2004-01-24D1T10.flac
dc7b7602a7b51d18e18d51774bceb160 *DBT2004-01-24D1T11.flac
1b823213cabb0381105b15abf580f280 *DBT2004-01-24D1T12.flac
d70855a425a7d12eed8e6653cbb7be07 *DBT2004-01-24D1T13.flac
6161308ad14d491fe3759b0733bb6d9a *DBT2004-01-24D2T01.flac
422a2e6a4b6f3829366c01a69bc9fe75 *DBT2004-01-24D2T02.flac
8672c5fcdea66903133fa643fd36ebe0 *DBT2004-01-24D2T03.flac
bece00b61017fe83ca4aa8777e631ac1 *DBT2004-01-24D2T04.flac
d64c2640d3ebf36f17ca77e7bbfe161e *DBT2004-01-24D2T05.flac
ad49d481ef713ee7cf2ed08a7118a95d *DBT2004-01-24D2T06.flac
bb21e4ac1df9d8c256fb2814c21eb0fa *DBT2004-01-24D2T07.flac
84ca7edc7fd780ff3b706d57b88a15a5 *DBT2004-01-24D2T08.flac
2b85aa3a3086ec4c8ec88d53f245a48e *DBT2004-01-24D2T09.flac
86a2109142db389d7169f64bb2ae9052 *DBT2004-01-24D2T10.flac
d0d3e9f668715206de481c47f6f0baaf *DBT2004-01-24D2T11.flac
9655ccbd725a920c64514e1127ef2880 *DBT2004-01-24D2T12.flac
fcba63e3ef6f99f3690f7837e1767176 *DBT2004-01-24D2T13.flac

Comments
Add Comment
Date User Comment