Browse Collections Artists Sources   Search Dates

Add Show    List Management    Help


Grateful Dead 10/12/83
Madison Square Garden, New York, NY
Comments Add Comment    Source Collectors    Add to Collection    Add to Want List    History
Source # 33340 Other Sources
Entered by Matt Vernon
Checksums ffp , flac-md5
Disc Counts 2 / 3
Media Size
Date Circulated
Date Added
03/26/2006
03/29/2006
Source Summary flac16; Sennheiser 421's > Sony TCD-5M > Sony D-6 TDK MA and SAX masters; Transfer: TDK MA and SAX masters > Nakamichi DR-3 > Vdh First Ultimate Audiophile cables > Apogee MiniMe (16/44.1) > EGOSYS WT2496 (soundcard) > SoundForge 7 > CDWAVE 1.93.3 > FLAC frontend 1.7.1; Location: approx 1/2 way between stage and sbd on the left side 10-15 rows up 
  Archive
Source Information - Download Text | Download Zip
Grateful Dead
Date: 10-12-1983
Madison Square Garden
NYC, NY

Source: Sennheiser 421's > Sony TCD-5M > Sony D-6 TDK MA and SAX masters / 10-11-83 filler source: Sennheiser 441's > Nakamichi 550 > Patch String > Sony D-6 Fuji FR master

Transfer: TDK MA and SAX masters > Nakamichi DR-3 > Vdh First Ultimate Audiophile cables > Apogee MiniMe (16/44.1) > EGOSYS WT2496 (soundcard) > SoundForge 7 > CDWAVE 1.93.3 > FLAC frontend 1.7.1

Location: 10-12-83 approx 1/2 way between stage and sbd on the left side 10-15 rows up/ 10-11-83 behind stage

Transfer completed on March 25, 2006
Recorded and transferred by Dean Grabski ([email protected])


CD 1 Set 1
01. Cold Rain & Snow
02. Minglewood Blues
03. Ramble On Rose
04. My Brother Esau
05. It Must Have Been The Roses
06. Cassidy
07. Cumberland Blues
08. Looks Like Rain ->
09. Might As Well

CD 2 Set 2
01. Help On The Way ->
02. Slipknot! ->
03. Franklin's Tower
04. Man Smart, (Woman Smarter)
05. He's Gone ->
06. Drums ->

CD 3 Set 2 Continued
01. Drum -> Space >
02. Truckin' ->
03. Black Peter ->
04. Not Fade Away
05. E: Revolution
06. Filler: Space >
07. Filler: St. Stephen >
08. Filler: Throwing Stones >
09. Filler: Touch Of Grey

notes
- I got to this show late and didn't have a floor ticket so it wasn't easy finding a patch. At the very last minute I see these guys behind the stage with their mics setup on tent poles pointed at rear facing repeaters and split by the aisle dead center.  Less crowd, great view, nice mics and no security back there. Only problem was that no one in the patch chain talked to anyone else and everyone just flipped their tapes anytime they felt like it. Being towards the end of the chain I got a lot of cuts in my recording and always hoped that someone else higher up on that food chain would convert this sweet sounding source but it has never surfaced; so here's a taste.

    length     expanded size   cdr  WAVE problems filename
     3:45.50       39807644    ---   --   ---xx   gd1983-10-11d2t01.flac
     6:40.48       70672940    ---   --   ---xx   gd1983-10-11d2t02.flac
     8:42.64       92231372    ---   --   ---xx   gd1983-10-11d2t03.flac
     6:17.52       66624796    -b-   --   ---xx   gd1983-10-11d2t04.flac
     6:35.00       69678044    ---   --   ---xx   gd1983-10-12d1t01.flac
     9:24.00       99489644    ---   --   ---xx   gd1983-10-12d1t02.flac
     6:49.00       72147644    ---   --   ---xx   gd1983-10-12d1t03.flac
     5:06.00       53978444    ---   --   ---xx   gd1983-10-12d1t04.flac
     5:46.00       61034444    ---   --   ---xx   gd1983-10-12d1t05.flac
     6:03.00       64033244    ---   --   ---xx   gd1983-10-12d1t06.flac
     9:28.23      100249340    ---   --   ---xx   gd1983-10-12d1t07.flac
     8:15.69       87480332    ---   --   ---xx   gd1983-10-12d1t08.flac
     4:28.74       47449400    -b-   --   ---xx   gd1983-10-12d1t09.flac
     3:41.31       39057356    ---   --   ---xx   gd1983-10-12d2t01.flac
     9:50.34      104156012    ---   --   ---xx   gd1983-10-12d2t02.flac
    13:59.10      148023164    ---   --   ---xx   gd1983-10-12d2t03.flac
     6:49.09       72168812    ---   --   ---xx   gd1983-10-12d2t04.flac
    12:20.66      130691276    ---   --   ---xx   gd1983-10-12d2t05.flac
     0:17.22        3049760    -b-   --   ---xx   gd1983-10-12d2t06.flac
    14:03.62      148851068    ---   --   ---xx   gd1983-10-12d3t01.flac
     7:36.13       80469020    ---   --   ---xx   gd1983-10-12d3t02.flac
     8:59.00       95079644    ---   --   ---xx   gd1983-10-12d3t03.flac
     8:14.13       87172220    ---   --   ---xx   gd1983-10-12d3t04.flac
     5:12.65       55188944    -b-   --   ---xx   gd1983-10-12d3t05.flac
   178:27.29     1888784564 B                     (totals for 24 files, 0.6256 overall compression ratio)
Show Checksums
ffp
gd1983-10-12d1t01.flac:7c3704bf02406e1c8a6b013240baa3ca
gd1983-10-12d1t02.flac:2014015c3e4ddb940091ccf99420c0dc
gd1983-10-12d1t03.flac:3b0d387cb6bdea382e9354ddec61f275
gd1983-10-12d1t04.flac:27d817277cacacdc766a6548f0768205
gd1983-10-12d1t05.flac:d053770b8093d5abcdcc2ad0c2edb058
gd1983-10-12d1t06.flac:24bb0d5473bdbedae9b7affc93cf268a
gd1983-10-12d1t07.flac:461bc21ff00274d6e79cc5a96c38543a
gd1983-10-12d1t08.flac:4f1b31d79f2bacdb9d74f5e0c5c8a623
gd1983-10-12d1t09.flac:14d8785f2b3d1c251a50377a280c0334
gd1983-10-12d2t01.flac:dd0fa2010543441d3cd577b5758bcf85
gd1983-10-12d2t02.flac:bd351f176895ade1b8a723375aa35f53
gd1983-10-12d2t03.flac:42779234fbd729de62580e52cd35a959
gd1983-10-12d2t04.flac:63bc1900d800d2fd7c6160f5f320845f
gd1983-10-12d2t05.flac:4eed5a132d193043b4f48c5aa4b24f85
gd1983-10-12d2t06.flac:f87fe8ded8aded3a1ac6fd2e902fb78e
gd1983-10-12d3t01.flac:94a3dd222b5918af673e8377da50c658
gd1983-10-12d3t02.flac:bbcbd9848f780a0a7085299a58430f12
gd1983-10-12d3t03.flac:2fb1abceb159dc5cc37619c1acd3c0c2
gd1983-10-12d3t04.flac:e9cf83addf1c23362e4a43a467ec7e4f
gd1983-10-12d3t05.flac:3deacbf096370073227d778a09a9912d
flac-md5
2c3002524199be976fbf7037dd691652 *gd1983-10-12d1t01.flac
02e2f6221bc44be318e32cb0ab896f22 *gd1983-10-12d1t02.flac
5c86b04c3f808ffd749c345220ca05f5 *gd1983-10-12d1t03.flac
7f97c52d858d5f5fcecb2ca73b718878 *gd1983-10-12d1t04.flac
81766a25ef3a3552f96afbf3a8a88ecf *gd1983-10-12d1t05.flac
4440ebccf5cbf016825d0554166b8f01 *gd1983-10-12d1t06.flac
1f67b135f73db6da49bd5e56809bec7d *gd1983-10-12d1t07.flac
077cbee3a50f0a5e142672890391094e *gd1983-10-12d1t08.flac
ef7ec73f13d908524c87f34663886c82 *gd1983-10-12d1t09.flac
20ea05d5d5017f507bb84abc07e7fe22 *gd1983-10-12d2t01.flac
feb380e9c4a72ed4c991734631f1ade0 *gd1983-10-12d2t02.flac
a83db7e1fff2aa0371fad565c9b44833 *gd1983-10-12d2t03.flac
9af41cdc53584b52fbee0fd76d2138c9 *gd1983-10-12d2t04.flac
fab6083fe69aa755a90212810f129927 *gd1983-10-12d2t05.flac
bb6b502f21709504b6237ada075488d2 *gd1983-10-12d2t06.flac
27fa924aabd42c682f3f0c3987a6c296 *gd1983-10-12d3t01.flac
4d1a5427444770170602031de19acfd8 *gd1983-10-12d3t02.flac
ffe35f848f6daa1d6a509bd1e5ab4a82 *gd1983-10-12d3t03.flac
2180f8876d71a3eed75bd59f955ef8d0 *gd1983-10-12d3t04.flac
add28460b876dfd2762ff8427c68c679 *gd1983-10-12d3t05.flac

Comments
Add Comment
Other Sources (comments)
unknown aud (could be FOB... (2) SBD > Cassette Master > Dat... (0) flac16; Source: FOB... (0) flac16; Recording... (0) flac16; SBD and... (0) 2 Beyer M160>Sony TCD5M... (0) flac16; Lineage:... (0) flac16; Source: 2... (0) flac24; Updated... (0) flac16; 2 Source... (0) flac24; Master... (0) flac16; Master... (0) flac24; Updated... (2) flac16; Updated... (2) flac24; Partial Show... (0) flac16; Partial Show... (0)
Date User Comment