Browse Collections Artists Sources   Search Dates

Add Show    List Management    Help


Grateful Dead 05/11/80
Cumberland County Civic Center, Portland, ME
Comments Add Comment    Source Collectors    Add to Collection    Add to Want List    History
Source # 33501 Other Sources
Entered by Matt Vernon
Checksums ffp , orig-flac-replaygain-md5 , flac-md5
Disc Counts 2 / 3
Media Size
Date Circulated
Date Added
3/31/06
03/31/2006
Source Summary SBD> C (Dick's master)> C (Dick copied for Patrick)> DAT> CDR> EAC> SHN V.3 - Patched version of the earlier soundboard version by Bill Tetzeli (upgrade in circulation). Note Added 11/9/08: Reflac version w/o replay gain added. See info file for details 
  Archive
Source Information - Download Text | Download Zip
Grateful Dead
Cumberland County Civic Center
Portland, ME
May 11, 1980

------------------------------------------------------------------------------
Patched version of shnid 12259

The following patches were made in CE Pro using the rolfe.pujol-vernon AUD source (Nak 700's>Sony D5) downloaded from archive.org (shnid 19266):  

- opening tuning and first notes of Alabama Getaway (I discarded the SBD d1t01, 12 secs of unremarkable tuning)
- the ends of It's All Over Now and Easy to Love You, as well as tuning following both songs
- cuts between Terrapin and Playin', Playin' and Drums, Space and Black Peter

All shn files were decoded to .wav and reencoded as FLAC.  Sector boundaries fixed and verified using shntool.  If there are any other cuts that I missed please let me know and I'll do my best to fix them.

Bill Tetzeli ([email protected])
3282006
------------------------------------------------------------------------------

SBD->C (Dick's master)->C (Dick copied for Patrick)->
DAT->CDR->EAC->SHN V.3 except for Brokedown,
which is from an unknown AUD source.
Sector boundaries verified with shntool.
This is the only known SBD version of this show.
Thanks to Patrick Babcock for the discs!!

Disc 1.
01. Tuning
02. Alabama Getaway->
03. Promised Land
04. They Love Each Other
05. Cassidy
06. Loser
07. It's All Over Now
08. Easy To Love You
09. Big Railroad Blues
10. Looks Like Rain
11. Don't Ease Me In->
12. The Music Never Stopped

Disc 2.
01. Scarlet Begonias->
02. Fire On The Mountain
03. Feel Like A Stranger->
04. Terrapin Station->
05. Playin' In The Band->
06. Drums->
07. Space

Disc 3.
01. Black Peter->
02. Goin' Down The Road Feelin' Bad->
03. Around & Around->
04. Johnny B. Goode
05. E: Brokedown Palace

[It's All Over Now and Easy To Love You are faded out.
Cuts in between Terrapin Station and Playin', Playin' and Drums.]

EAC and SHN'ed by terrapinstation on 092202.
Questionscomments about this show to [email protected]

Another Porky Prime Cut from Terrapin Station!!

shntool output:

    length     expanded size   cdr  WAVE problems filename
     1:32.70       16393484    ---   --   ---xx   gd80-05-11d1t01.flac
     4:36.13       48717020    ---   --   ---xx   gd80-05-11d1t02.flac
     4:50.40       51250124    ---   --   ---xx   gd80-05-11d1t03.flac
     7:32.25       79791644    ---   --   ---xx   gd80-05-11d1t04.flac
     5:10.50       54801644    ---   --   ---xx   gd80-05-11d1t05.flac
     7:40.60       81285164    ---   --   ---xx   gd80-05-11d1t06.flac
     9:15.68       98061980    ---   --   ---xx   gd80-05-11d1t07.flac
     4:33.04       48166652    ---   --   ---xx   gd80-05-11d1t08.flac
     5:00.71       53087036    ---   --   ---xx   gd80-05-11d1t09.flac
    10:11.15      107815724    ---   --   ---xx   gd80-05-11d1t10.flac
     3:17.65       34903724    ---   --   ---xx   gd80-05-11d1t11.flac
     7:41.57       81454508    ---   --   ---xx   gd80-05-11d1t12.flac
     6:16.20       66373484    ---   --   ---xx   gd80-05-11d2t01.flac
    12:30.10      132323564    ---   --   ---xx   gd80-05-11d2t02.flac
     7:34.20       80132684    ---   --   ---xx   gd80-05-11d2t03.flac
    12:20.21      130585436    ---   --   ---xx   gd80-05-11d2t04.flac
     9:06.29       96382652    ---   --   ---xx   gd80-05-11d2t05.flac
     5:08.24       54387692    ---   --   ---xx   gd80-05-11d2t06.flac
     3:12.32       33944108    ---   --   ---xx   gd80-05-11d2t07.flac
     9:13.42       97648028    ---   --   ---xx   gd80-05-11d3t01.flac
     7:16.55       77039804    ---   --   ---xx   gd80-05-11d3t02.flac
     3:57.45       41912684    ---   --   ---xx   gd80-05-11d3t03.flac
     4:05.01       43220396    ---   --   ---xx   gd80-05-11d3t04.flac
     5:36.45       59376284    ---   --   ---xx   gd80-05-11d3t05.flac
   157:41.57     1669055520 B                     (totals for 24 files, 0.6166 overall compression ratio)
Show Checksums
ffp
gd80-05-11d1t01.flac:f9a741fe6a12cabab583232d7ba426f2
gd80-05-11d1t02.flac:2e069adb729d3d268e7227a90bf9a479
gd80-05-11d1t03.flac:d8181f6b58c4fc87594106faca0d378c
gd80-05-11d1t04.flac:961dc008362024aca751fd98735b44cf
gd80-05-11d1t05.flac:7967891abcaf724377c65d4b50a64c5d
gd80-05-11d1t06.flac:eca73cb97a90b2d5650eaa13feff47ef
gd80-05-11d1t07.flac:5c870f7d09c1c715b52be442afdf4e21
gd80-05-11d1t08.flac:0365bc852c46be93675688f61673fbff
gd80-05-11d1t09.flac:90755a5c0e406137b1be361e1fc38db1
gd80-05-11d1t10.flac:0ac6d3ed23011bae183cfc8bca6f66b0
gd80-05-11d1t11.flac:9dd24b54ba60788e5b5f393a34a4a718
gd80-05-11d1t12.flac:14cb26d9da1374d42b2ba765300da70a
gd80-05-11d2t01.flac:5d2152fd982bc6b2a594c63149f8850a
gd80-05-11d2t02.flac:96897ebc016123247396043f575165d9
gd80-05-11d2t03.flac:ec1b5181928e9612e4aded8393a66047
gd80-05-11d2t04.flac:10142f0612cf0193b3e4e4c2a8706c7d
gd80-05-11d2t05.flac:e2ff782f51381ca4807841a4cb59151c
gd80-05-11d2t06.flac:5c44d63f7e6470ad85f54dbc1c77f511
gd80-05-11d2t07.flac:8804a7a51f158bb9cc27c2a52cb612d6
gd80-05-11d3t01.flac:c944958d5bf01165914c2df11bed43ba
gd80-05-11d3t02.flac:a4593a185be02a27ac19431a4a110342
gd80-05-11d3t03.flac:4b49f045a90f794c179fa2211cb42c12
gd80-05-11d3t04.flac:06b87ad3f15936369e74b5bafa92fdcf
gd80-05-11d3t05.flac:8f8df31d1bd83c55290d401534a300cf
orig-flac-replaygain-md5
31e8e36583d57f21a7ff10240562e993 *gd80-05-11d1t01.flac
8898068e96a8f9795278133e00dc690f *gd80-05-11d1t02.flac
cffabe7e80e0badda913703f8b24f331 *gd80-05-11d1t03.flac
3fbe55ab9f3cd3787b47f319dfdcd009 *gd80-05-11d1t04.flac
58f851579c851b3629328893210bd1f3 *gd80-05-11d1t05.flac
5c25318ccbcb40f4198386c751696716 *gd80-05-11d1t06.flac
fc691e8c2fbd44f3797bba8459328368 *gd80-05-11d1t07.flac
19f908e21a79faa24225e9126b115765 *gd80-05-11d1t08.flac
d7c8ef082af33765b29353d18e70ca29 *gd80-05-11d1t09.flac
5fbe3b0da0a49b497fa2d009cb861ee7 *gd80-05-11d1t10.flac
6c5dafa86e4d471279969f302b3ff670 *gd80-05-11d1t11.flac
209b6088fa89a066b97947236c3ae9fc *gd80-05-11d1t12.flac
a3f1635ffa97ef47796e8e0a0f86d488 *gd80-05-11d2t01.flac
df944d8535ce7af782552babca18659c *gd80-05-11d2t02.flac
cc225c2e6ec9eb5f55ffa2dd427a9bbd *gd80-05-11d2t03.flac
2ffacfaa872ef988678f5808815671ac *gd80-05-11d2t04.flac
2aedf9fb33568c42b968e8107d33bdc1 *gd80-05-11d2t05.flac
5215f90ba1d2a702802f02f318292c4d *gd80-05-11d2t06.flac
a4631e9c32c2064148970b918f3abff5 *gd80-05-11d2t07.flac
5aa9b116f026ff4f94f1a501610a78f6 *gd80-05-11d3t01.flac
34525285f2b45a169c2b84fac5f0acea *gd80-05-11d3t02.flac
18da3c7644746a4b82f9531965222267 *gd80-05-11d3t03.flac
c85795fa5303d50b5c4c3356714c543e *gd80-05-11d3t04.flac
30229661d8d164085e51022eb8865a4c *gd80-05-11d3t05.flac
flac-md5
65657a540008dca83fcba980c31626df *gd80-05-11d1t01.flac
578a8fb82d68693488f4f548df9aa844 *gd80-05-11d1t02.flac
f88bd24e1905974190497af39c07ee3b *gd80-05-11d1t03.flac
feaf9a2f10191fff2894b771a2bc8038 *gd80-05-11d1t04.flac
372e481c9c642556d6f63a94b8d48f57 *gd80-05-11d1t05.flac
66666d9006bcd888d0a46ef4c35e1265 *gd80-05-11d1t06.flac
30d38c882f16a250207922ddd43ab0a2 *gd80-05-11d1t07.flac
6ce65bb34ab248597cb9b03fd8091c6b *gd80-05-11d1t08.flac
405235ee727b46787a5f944779f95e93 *gd80-05-11d1t09.flac
0e0f30ff5d579e257fafd0b128d77dc2 *gd80-05-11d1t10.flac
220c45b1dedd99332c964cb2a02553e8 *gd80-05-11d1t11.flac
c17f0eedcad0a2142d0d4fd6edca11cc *gd80-05-11d1t12.flac
d11a19e61d5cc8a1d21f287f5bae1a67 *gd80-05-11d2t01.flac
cb02cc049d70db8b2075d120a60f0de2 *gd80-05-11d2t02.flac
3fce5554a8f0a6fa374c32000c9e3bbe *gd80-05-11d2t03.flac
d2a8206212753bf5c3470236f75c5c20 *gd80-05-11d2t04.flac
dea4268564457efa802cc6694002dd59 *gd80-05-11d2t05.flac
4a53dce27328b362e7625f4d3d1daa5b *gd80-05-11d2t06.flac
399e9bddbef5ce0b0a48247fb8fb772e *gd80-05-11d2t07.flac
6e74348ed8b527c520000046fa2860fe *gd80-05-11d3t01.flac
04c0cfced908c6f25b0876de96ed3b1f *gd80-05-11d3t02.flac
c924941313d9f0c2e372cc99e8f55759 *gd80-05-11d3t03.flac
27f0bc29508a20875451b428cd854a18 *gd80-05-11d3t04.flac
b85c2e6317d3860d0be3219930e6a2f8 *gd80-05-11d3t05.flac

Comments
Add Comment
Other Sources (comments)
Nak 300's>Sony D5>master... (0) SBD> C (Dick's master)> C... (2) Original (3) Recording by Steve Rolfe:... (0) flac16; SBD ->... (0) flac16; 2 x... (0) flac24; 2 x... (0) flac16; Recorded by... (0) flac16; Source:... (0) flac24; (FOB) Sony... (0) flac24; AUD: 2x... (2) flac16; AUD: 2x... (2) flac16; 2 Source... (0)
Date User Comment
11/09/2006 btet This was inadvertently FLAC encoded with replaygain. If you're playing the FLACs in Winamp you should reFLAC the files without replaygain option. If you're burning extracted .wavs to CD, these are unaffected and no reFLACing is necessary. I apologize for the error.
01/17/2008 charlie miller Wouldn't Dick' tape be a 1st gen off of the master? That would make this 2 analog gens off of the master, not one.