Browse Collections Artists Sources   Search Dates

Add Show    List Management    Help


Grateful Dead 05/14/83
Greek Theatre, U. Of California, Berkeley, CA
Comments Add Comment    Source Collectors    Add to Collection    Add to Want List    History
Source # 33502 Other Sources
Entered by Matt Vernon
Checksums flac-md5 , ffp
Disc Counts 2 / 2
Media Size
Date Circulated
Date Added
3/31/06
03/31/2006
Source Summary flac16; Master: Beyer M201's X-Y > Sony TCD5M (Maxell MX 90, no dolby) Location: 85 feet from stage, DFC Transfer: Sony TC-RX 370 > Echo Gina [email protected]/48 > BIAS PEAK VST 2.8 > Mac G-4 dual 533 > Adaptec toast > Matshita CD-RW 7573 (internal) > EAC (PC w/pentium III 700) > flac v1.7.1 etree ed. Mastered by the Executive Crew (T.P, K.H.) Transferred by Kyle Holbrook 
  Archive
Source Information - Download Text | Download Zip
Grateful Dead
Date: 1983-05-14
Greek Theatre
Berkeley, CA


disc 1
d1t01: Feel Like A Stranger
d1t02: Friend Of The Devil
d1t03: Me & My Uncle >
d1t04: Mexicali Blues
d1t05: Tennessee Jed
d1t06: My Brother Esau >
d1t07: Bertha
Encore:
d1t08: One More Saturday Night

disc 2
d2t01: Shakedown Street
d2t02: Playing In The Band >
d2t03: China Doll >
d2t04: Space >
d2t05: Drums >
d2t06: Space >
d2t07: The Wheel >
d2t08: Playing In The Band >
d2t09: Morning Dew >
d2t10: Sugar Magnolia


Comments:
One of my favorite GD shows.  The Shakedown and Morning Dew are standouts.

Master: Beyer M201's X-Y > Sony TCD5M (Maxell MX 90, no dolby)
Location: 85 feet from stage, DFC
Transfer: Sony TC-RX 370 > Echo Gina [email protected]/48 > BIAS PEAK VST 2.8 > Mac G-4 dual 533 > Adaptec toast > Matshita CD-RW 7573 (internal) > EAC (PC w/pentium III 700) > flac v1.7.1 etree ed.

Mastered by the Executive Crew (T.P, K.H.)

Transferred by Kyle Holbrook

    length     expanded size   cdr  WAVE problems filename
     7:55.67       83947628    ---   --   ---xx   gd1983-05-14d1t01.flac
     9:43.07      102857708    ---   --   ---xx   gd1983-05-14d1t02.flac
     3:47.28       40108700    ---   --   ---xx   gd1983-05-14d1t03.flac
     5:04.66       53780876    ---   --   ---xx   gd1983-05-14d1t04.flac
     8:32.36       90401516    ---   --   ---xx   gd1983-05-14d1t05.flac
     5:22.58       56937260    ---   --   ---xx   gd1983-05-14d1t06.flac
     6:27.71       68433836    ---   --   ---xx   gd1983-05-14d1t07.flac
     5:31.19       58433132    ---   --   ---xx   gd1983-05-14d1t08.flac
    12:40.35      134146364    ---   --   ---xx   gd1983-05-14d2t01.flac
    12:06.64      128216972    ---   --   ---xx   gd1983-05-14d2t02.flac
     4:49.36       51064316    ---   --   ---xx   gd1983-05-14d2t03.flac
     6:12.17       65660828    ---   --   ---xx   gd1983-05-14d2t04.flac
     5:27.01       57685196    ---   --   ---xx   gd1983-05-14d2t05.flac
     5:40.25       60034844    ---   --   ---xx   gd1983-05-14d2t06.flac
     8:50.04       93501452    ---   --   ---xx   gd1983-05-14d2t07.flac
     2:50.45       30093884    ---   --   ---xx   gd1983-05-14d2t08.flac
     9:45.26      103255196    ---   --   ---xx   gd1983-05-14d2t09.flac
    10:26.45      110532284    ---   --   ---xx   gd1983-05-14d2t10.flac
   131:14.50     1389091992 B                     (totals for 18 files, 0.5849 overall compression ratio)


[email protected]  
Show Checksums
flac-md5
c500e5b075ecd50af69e666af1f8212f *gd1983-05-14d1t01.flac
00b6722c5dc7d394f4f94ca67f64a079 *gd1983-05-14d1t02.flac
00ba8272878e91d75c88f8b1575f27b6 *gd1983-05-14d1t03.flac
36434ffc75c8c3405c711c8a83af9bc9 *gd1983-05-14d1t04.flac
0266673b9bafc1c239ebe1c51eb03307 *gd1983-05-14d1t05.flac
d2a591654247ab633b29966cf2e4edc5 *gd1983-05-14d1t06.flac
0025d2fe830394e1fa8d981903377943 *gd1983-05-14d1t07.flac
c3bfc32eff648db18808d00693c27b90 *gd1983-05-14d1t08.flac
4088515402fcfc609fb32c60c58521c8 *gd1983-05-14d2t01.flac
7d4f0886594adf01287e1ea383719817 *gd1983-05-14d2t02.flac
cf83ded8168fcfc40eba28cf2a89cb3c *gd1983-05-14d2t03.flac
332bbaac6438b0e1097a9ce942b8de0b *gd1983-05-14d2t04.flac
2b8764d6ebce0cee12ceda758ac8d791 *gd1983-05-14d2t05.flac
f9884af62eb9e262a525b85f490f5407 *gd1983-05-14d2t06.flac
6651dbd673f84256debe09acdd3ba4a1 *gd1983-05-14d2t07.flac
b8286c9ec4ca9613f9e64d88eb2ebf00 *gd1983-05-14d2t08.flac
72a97157af879a1e025e3141bb0bf3ad *gd1983-05-14d2t09.flac
ff51820d092e0def0f47247fb1b0ba4e *gd1983-05-14d2t10.flac
ffp
gd1983-05-14d1t01.flac:cdc35cf69c12f365c3e860ba1e1d3fd0
gd1983-05-14d1t02.flac:d489216626cbe0ea0daa815957319a7b
gd1983-05-14d1t03.flac:a2e7b6f0259375705eedfe5a102b73cc
gd1983-05-14d1t04.flac:ed3c8da811f66fa782703f09ed569a1c
gd1983-05-14d1t05.flac:d469babd2a4d6be590ebb25f6fef4aec
gd1983-05-14d1t06.flac:7390de6617c5ea631b02685984fe0603
gd1983-05-14d1t07.flac:d56ec8cf8113825c22a61d1f691814a4
gd1983-05-14d1t08.flac:7e95a071ebc76177f8b2d6cb408e46c0
gd1983-05-14d2t01.flac:3a2d26696176ce31ba18e98190ec2509
gd1983-05-14d2t02.flac:5f19910d1874241d172b9ee92d1840c9
gd1983-05-14d2t03.flac:841ed93589ab34225d675685115576ab
gd1983-05-14d2t04.flac:bf05867edebe90f36e9cb9e21995f5d1
gd1983-05-14d2t05.flac:26d265384d8ebaa476f6708e71c6b721
gd1983-05-14d2t06.flac:b07557f3186f745b029e45d2e1e0a4a3
gd1983-05-14d2t07.flac:9806a8e283c9c65ee58364cdcdd79fff
gd1983-05-14d2t08.flac:3ff868c76014dc8159b47fd938b97b7b
gd1983-05-14d2t09.flac:19acfa721a7f559e25a8d9ab444588e9
gd1983-05-14d2t10.flac:4958a3f6675f3578fb2154e70bead44b

Comments
Add Comment
Other Sources (comments)
FOB: 3 Sennheiser 421's >... (1) FOB: Sennheiser 421's >... (0) FOB Sennheiser 421s>Sony... (0) *Set 1 Only*
...
(1) flac16; Set 1 only,... (0) flac16; Recording... (0) flac16; Recording... (0) flac16; Source:... (0) Source: Audience recording... (1) flac16/48kHz;... (1) flac24/48 Master:... (0) flac16/44.1 ... (0)
Date User Comment