Browse Collections Artists Sources   Search Dates

Add Show    List Management    Help


KVHW 07/05/99
Hyatt Regency, Incline Village, CA
Comments Add Comment    Source Collectors    Add to Collection    Add to Want List    History
Source # 33755 Other Sources
Entered by
Checksums md5
Disc Counts 1 / 2
Media Size
Date Circulated
Date Added
2005-02-10
03/26/2006
Source Summary (Stage) Nak 700/CP701 > Sony D5 (As Mic Pre-Amp) > Dat > Tascam DA-20 mkII > Lucid PCI24 > Soundforge 4.5 > CDWav > SHN 
  Archive
Source Information - Download Text | Download Zip
KVHW
07/05/99
Hyatt Regency - Incline Village, NV

Source: (Stage) Nak 700/CP701>Sony D5(As Mic Pre-Amp)>Dat>Sound Forge>CD

Set One:

d1t01 Why Can't We All Just Samba
d1t02 Kissing the Boo Boo
d1t03 Footprints
d1t04 Mr. Potato Head
d1t05 Bad Hair
d1t06 A New Africa

Set Two:

d2t01 If You Only Knew
d2t02 It's Up To You
d2t03 Five B4 Funk

Notes:
Set Two with Michael Kang from String Cheese.

SHNTOOL Output:

    length     expanded size   cdr  WAVE problems filename
     9:01.44       95535932    ---   --   -----   kvhw99-07-05d1t01.wav
    10:17.41      108935276    ---   --   -----   kvhw99-07-05d1t02.wav
    12:14.50      129595244    ---   --   -----   kvhw99-07-05d1t03.wav
    17:20.11      183481916    ---   --   -----   kvhw99-07-05d1t04.wav
    12:45.01      134948396    ---   --   -----   kvhw99-07-05d1t05.wav
     8:50.50       93609644    ---   --   -----   kvhw99-07-05d1t06.wav
    19:31.42      206663228    ---   --   -----   kvhw99-07-05d2t01.wav
    23:17.02      246435548    ---   --   -----   kvhw99-07-05d2t02.wav
    15:57.73      168986540    ---   --   -----   kvhw99-07-05d2t03.wav
   129:16.14     1368191724 B                     (totals for 9 files, 1.0000 overall compression ratio)

md5:

1a705cda914e05572df9c50f6d6110ed *kvhw99-07-05d1t01.shn
9077c763263b66c93ad234cf6c206872 *kvhw99-07-05d1t02.shn
638b17204f1bc01edd82d6fb9eb135c5 *kvhw99-07-05d1t03.shn
cabe159eb81a8aeeda2c8b699232a98e *kvhw99-07-05d1t04.shn
6d6d3c2f108b45aabb87d3e4275c3551 *kvhw99-07-05d1t05.shn
19de8f86998a1f5bb3e5bf1e69946f03 *kvhw99-07-05d1t06.shn
8318f8ca9729215fa2576effd1c256e9 *kvhw99-07-05d2t01.shn
f2e900e5af1519e31eb97b073cfe5b30 *kvhw99-07-05d2t02.shn
1ac25bbc5802ced3b725620174d7f11d *kvhw99-07-05d2t03.shn

Show Checksums
md5
1a705cda914e05572df9c50f6d6110ed *kvhw99-07-05d1t01.shn
9077c763263b66c93ad234cf6c206872 *kvhw99-07-05d1t02.shn
638b17204f1bc01edd82d6fb9eb135c5 *kvhw99-07-05d1t03.shn
cabe159eb81a8aeeda2c8b699232a98e *kvhw99-07-05d1t04.shn
6d6d3c2f108b45aabb87d3e4275c3551 *kvhw99-07-05d1t05.shn
19de8f86998a1f5bb3e5bf1e69946f03 *kvhw99-07-05d1t06.shn
8318f8ca9729215fa2576effd1c256e9 *kvhw99-07-05d2t01.shn
f2e900e5af1519e31eb97b073cfe5b30 *kvhw99-07-05d2t02.shn
1ac25bbc5802ced3b725620174d7f11d *kvhw99-07-05d2t03.shn

Comments
Add Comment
Other Sources (comments)
{onstage} AKG c61's >... (0) AKGC61's xy @ the stage lip... (1)
Date User Comment