Browse Collections Artists Sources   Search Dates

Add Show    List Management    Help


Man Or Astroman? 12/17/01
Liquid Joe's, Salt Lake City, UT
Comments Add Comment    Source Collectors    Add to Collection    Add to Want List    History
Source # 33801 Other Sources
Entered by Hamilton, Greg & Diana
Checksums md5 , ffp
Disc Counts 1 / 1
Media Size
Date Circulated
Date Added
4/4/06
04/11/2006
Source Summary flac16; Audio Technica lavalier condenser mic > Sharp MD-MT15 > CD > PC > Sonic Foundry > CD > WAVs with iTunes > FLAC; taped, transferred by Jared Wright 
  Archive
Source Information - Download Text | Download Zip
Man Or Astro-Man?
December 17, 2001
Liquid Joe's
Salt Lake City, Utah

Audience Recording, Taped and transferred by Jared Wright

Source: Audio Technica lavalier condenser mic > Sharp MD-MT15 minidisc unit > CD transfer with Pioneer PDR-509 CD-R deck > CD ripped to PC > possible track corrections in Sonic Foundry > final CD > WAVs with iTunes > converted to FLAC with Fairstars Audio Converter


01. Engines of Difference                                      4:45.71
02. banter: EEVIAC                                             0:50.25
03. Theme from EEVIAC                                          2:19.08
04. Escape Velocity                                            1:53.33
05. banter: snow chains                                        1:01.46
06. Onward Through This Bumblefuck of Wires*                   2:38.25
07. Many Pieces of Large Fuzzy Mammals Gathered Together at a Rave and Schmoozing with a Brick                                        3:09.06
08. Junk Satellite                                             3:09.66
09. banter: boring sound                                       1:05.48
10. Preparation Clont                                          1:41.02
11. band intro: Macintalk Fred                                 1:44.33
12. Within One Universe There Are Millions                     3:14.22
13. A Reversal Of Polarity                                     3:13.02
14. banter: next song                                          1:07.73
15. Classified                                                 1:38.43
16. Very Subtle Elevators                                      2:29.29
17. banter: velocity                                           1:09.32
18. Song for the Two Mile Linear Particle Accelerator, Stanford University, Stanford, California > Television Fission          4:39.73
19. band intro: Image Writer II dot-matrix printer             3:42.04
20. A Simple Text File                                         2:04.58
21. banter: not anatomically correct                           1:52.45
22. Trapezoid                                                  2:58.06
23. drum intro>                                                0:35.29
24. Name of Numbers                                            1:34.45
25. Interstellar Hardrive                                      1:28.64
26. La Grange > Interstellar Overdrive?                        8:40.30
total                                                         64:48.18

*new song, introduced as "Onward Through This Bumblefuck of Snow Chains"

Surface changes (file renaming, checksum generation, shntool check, text file updates) by Diana Hamilton prior to Live Music Archive upload 4/2006.

3-piece lineup: Birdstuff (drums), Coco the Electronic Monkey Wizard (bass and more), Trace Reading (guitar)

Interview from 12/11/2001 for context:
http://www.rockzone.com/interviews/moam.shtml

--From Jared's notes on original distribution seeded through DIME Bittorrent site, 4/2006:--

Here's another band that we've not seen much of around here lately. In fact, we've not seen much of them anywhere for a while. There was an update on www.astroman.com about a year ago, mentioning something about gathering footage for a DVD project... but, that's it.

I was pleasantly surprised how well this recording came out. I was right in front of Trace Reading on the right side of the stage (if you can call it a stage). That put me further away from the bass amps, so I don't get the bass distortion as seen in some of my other recordings. Coco's mic doesn't come in very well between songs, but that's no biggie. Again, I think this sounds great when cranked up! For extra fun, jump to track 8 and sit on your subwoofer... whoopie!

...They wrap it up with a cool version of ZZ Top's LaGrange that explodes into who knows what. If anybody is an Astro-Man expert and can fill us in, please do.

As with many of my personal recordings, this one has never been posted anywhere, so spread it around!

--shntool report--
    length     expanded size   cdr  WAVE problems filename
     4:45.71       50441036    ---   --   ---xx   moam2001-12-17d1t01.flac
     0:50.25        8878844    ---   --   ---xx   moam2001-12-17d1t02.flac
     2:19.08       24538460    ---   --   ---xx   moam2001-12-17d1t03.flac
     1:53.33       20010860    ---   --   ---xx   moam2001-12-17d1t04.flac
     1:01.46       10868636    ---   --   ---xx   moam2001-12-17d1t05.flac
     2:38.25       27930044    ---   --   ---xx   moam2001-12-17d1t06.flac
     3:09.06       33353756    ---   --   ---xx   moam2001-12-17d1t07.flac
     3:09.66       33494876    ---   --   ---xx   moam2001-12-17d1t08.flac
     1:05.48       11578940    ---   --   ---xx   moam2001-12-17d1t09.flac
     1:41.02       17821148    ---   --   ---xx   moam2001-12-17d1t10.flac
     1:44.33       18423260    ---   --   ---xx   moam2001-12-17d1t11.flac
     3:14.22       34273388    ---   --   ---xx   moam2001-12-17d1t12.flac
     3:13.02       34049948    ---   --   ---xx   moam2001-12-17d1t13.flac
     1:07.73       11990540    ---   --   ---xx   moam2001-12-17d1t14.flac
     1:38.43       17388380    ---   --   ---xx   moam2001-12-17d1t15.flac
     2:29.29       26351852    ---   --   ---xx   moam2001-12-17d1t16.flac
     1:09.32       12246908    ---   --   ---xx   moam2001-12-17d1t17.flac
     4:39.73       49387340    ---   --   ---xx   moam2001-12-17d1t18.flac
     3:42.04       39170252    ---   --   ---xx   moam2001-12-17d1t19.flac
     2:04.58       22010060    ---   --   ---xx   moam2001-12-17d1t20.flac
     1:52.45       19862684    ---   --   ---xx   moam2001-12-17d1t21.flac
     2:58.06       31413356    ---   --   ---xx   moam2001-12-17d1t22.flac
     0:35.29        6242252    ---   --   ---xx   moam2001-12-17d1t23.flac
     1:34.45       16687484    ---   --   ---xx   moam2001-12-17d1t24.flac
     1:28.64       15673772    ---   --   ---xx   moam2001-12-17d1t25.flac
     8:40.30       91798604    ---   --   ---xx   moam2001-12-17d1t26.flac
    64:48.18      685886680 B                     (totals for 26 files, 0.5945 overall compression ratio)
Show Checksums
md5
1163cb4cd3543675928fa1ae5b37e42e *moam2001-12-17d1t01.flac
65334f2e10656bd07fe439405313cbeb *moam2001-12-17d1t02.flac
827bf32a283e4b17d6ea6f4358a67133 *moam2001-12-17d1t03.flac
3c1b87462e15384c450df3e204d45d9d *moam2001-12-17d1t04.flac
d8e6e9f9f115d161a61a899604fd318e *moam2001-12-17d1t05.flac
aed649b2307145d42c064afa532c75b6 *moam2001-12-17d1t06.flac
9b60bf156b642c0eb839e785751561cc *moam2001-12-17d1t07.flac
ccdca4cc164dbea4a90edda205cbcb34 *moam2001-12-17d1t08.flac
178f8a1213e076c68fc89364603a87d0 *moam2001-12-17d1t09.flac
b5050477e6275ce7193f771f686bef0e *moam2001-12-17d1t10.flac
6e80757f4913cccea3fa455cde7fb1eb *moam2001-12-17d1t11.flac
3634b52dcf684bb015d377d4f0598944 *moam2001-12-17d1t12.flac
9042c4f59c068441f5712a2e156b5368 *moam2001-12-17d1t13.flac
1d64e095fa6eec574e5a9cb8084b20d0 *moam2001-12-17d1t14.flac
f6d84443dd5d7901394cf20b20b3c7d5 *moam2001-12-17d1t15.flac
fd834002776cc97f0cfd2be943980552 *moam2001-12-17d1t16.flac
15fc38f6032bd46010c1997581291420 *moam2001-12-17d1t17.flac
f803d2feed229ce281b1570aeb53bf68 *moam2001-12-17d1t18.flac
cce6e9310f04d608297cb43bc1a6f3d7 *moam2001-12-17d1t19.flac
448017ba853968d55a7cee8d9ee17766 *moam2001-12-17d1t20.flac
2dfb11d8251f65165ea931a4a34aed93 *moam2001-12-17d1t21.flac
7b774dd55dd3471dcb5068bb776f3e8e *moam2001-12-17d1t22.flac
56574b9a7e0a35c1527e239575cd7b54 *moam2001-12-17d1t23.flac
af7101e41bb33afc1c6f5250fee6558f *moam2001-12-17d1t24.flac
3b86d4e4e2c461c0389b969a9e16a679 *moam2001-12-17d1t25.flac
e946e9f7c60dc02b21b1e66267b0c364 *moam2001-12-17d1t26.flac
ffp
moam2001-12-17d1t01.flac:b2f224a2d0428390e5fd9f2efbf2058d
moam2001-12-17d1t02.flac:90c33511b4387cc523a11077e68ff8a8
moam2001-12-17d1t03.flac:9cc5512bb93fd03d0cb57b573ee3edea
moam2001-12-17d1t04.flac:0ac05a622af7d7e5020d4683a93151b7
moam2001-12-17d1t05.flac:6b7dd6efe367a814dd440a061698654e
moam2001-12-17d1t06.flac:edc0c6a4d09a3abffd1d45f98f491231
moam2001-12-17d1t07.flac:2272ced538343f47e3c0c425313fea3c
moam2001-12-17d1t08.flac:6228539a2258b2a6d2a062e5a9a6c24c
moam2001-12-17d1t09.flac:5bfd3b9f1c9d507f92ac621800772c6d
moam2001-12-17d1t10.flac:07bfd282b947c23a7d782ec18d49a5d9
moam2001-12-17d1t11.flac:ba4c69b48cbf2fef75b17df0069299da
moam2001-12-17d1t12.flac:9cdea3b7b70bb2851719ce1cb70c82a4
moam2001-12-17d1t13.flac:0f54777f9c0c4bea0401b711ab38c1dc
moam2001-12-17d1t14.flac:8a81803b6b955ea5bacd7ac065f84af7
moam2001-12-17d1t15.flac:9797c48dbbd9446d30e7b0b48a069e99
moam2001-12-17d1t16.flac:ad2c30e9d1907e9a2178b12c56152d31
moam2001-12-17d1t17.flac:bec4517c7e36a8290066296ccd956c29
moam2001-12-17d1t18.flac:5dce824a25e8b206dee3aa1853a86859
moam2001-12-17d1t19.flac:59a73f3504da4f733118a13a9aa20e13
moam2001-12-17d1t20.flac:373f88766387fb6ecfafef9f121a86e5
moam2001-12-17d1t21.flac:06af2be7f55fd881481e6c115cf50bf4
moam2001-12-17d1t22.flac:df0b7097e1d9e4ffba9666d7564d9280
moam2001-12-17d1t23.flac:eed659417e9aee674184a3ea22ac08bd
moam2001-12-17d1t24.flac:37726b0fa9b56687442220758ecd12cc
moam2001-12-17d1t25.flac:a21c5a0e93879ae09437ac09fe41df61
moam2001-12-17d1t26.flac:08eb9e136ebcae6c66ddc27a4789476e

Comments
Add Comment
Date User Comment