Browse Collections Artists Sources   Search Dates

Add Show    List Management    Help


Grateful Dead 09/02/83
Boise State University Pavillion, Boise, ID
Comments Add Comment    Source Collectors    Add to Collection    Add to Want List    History
Source # 33819 Other Sources
Entered by dr.unclear
Checksums shn-md5 , st5
Disc Counts 2 / 3
Media Size
Date Circulated
Date Added
02/26/2002
04/12/2006
Source Summary SBD> cassette master>DAT>CDR>SHN - Patched fix of shnid 2174 by Bill Tetzeli 
  Archive
Source Information - Download Text | Download Zip
Grateful Dead
Boise Pavilion, Boise State University
Boise, ID
Date - 09/02/83
---------------------------------------------------------------------------
The following fixes were made to this source (etree shnid 2174):
- the transition between discs 2 and 3 was made seamless
- the post Eyes jam was moved to the beginning of disc 3
- gap in post Eyes jam patched with FOB source (beginning of d3t01)
- gap at beginning of Sugar Magnolia patched with FOB source

Bill Tetzeli, [email protected] 2/15/2006
---------------------------------------------------------------------------
SBD> cassette master>DAT>CDR


DISK 1
SET1
01. Wang Dang Doodle >
02. Jack Straw
03. They Love Each Other
04. Mama Tried >
05. Big River
06. Brown-Eyed Women
07. Minglewood Blues
08. Big Railroad Blues
09. Looks Like Rain >
10. Deal


DISK 2
SET2
01. Help on the Way >
02. Slipknot >
03. Franklin's Tower
04. Estimated Prophet >
05. Eyes of the World >


DISK 3
01. Jam (*) >
02. Drums >
03. Space >
04. Throwing Stones >
05. Goin' Down the Road >
06. Black Peter >
07. Sugar Magnolia
E:
08. It's All Over Now, Baby Blue

(*) Bob, Brent, and Drummers



    length     expanded size   cdr  WAVE problems filename
     6:19.45       66961484    ---   --   ---xx   GD83-09-02D1T01.shn
     5:30.28       58277900    ---   --   ---xx   GD83-09-02D1T02.shn
     7:49.25       82790444    ---   --   ---xx   GD83-09-02D1T03.shn
     2:47.10       29482364    ---   --   ---xx   GD83-09-02D1T04.shn
     6:02.65       64009724    ---   --   ---xx   GD83-09-02D1T05.shn
     6:11.74       65618492    ---   --   ---xx   GD83-09-02D1T06.shn
     7:52.01       83263196    ---   --   ---xx   GD83-09-02D1T07.shn
     7:15.35       76816364    ---   --   ---xx   GD83-09-02D1T08.shn
    11:00.01      116426396    ---   --   ---xx   GD83-09-02D1T09.shn
     9:43.69      103003532    ---   --   ---xx   GD83-09-02D1T10.shn
     3:26.46       36446636    ---   --   ---xx   GD83-09-02D2T01.shn
     8:02.41       85121276    ---   --   ---xx   GD83-09-02D2T02.shn
    14:11.65      150269324    ---   --   ---xx   GD83-09-02D2T03.shn
    12:23.55      131194604    ---   --   ---xx   GD83-09-02D2T04.shn
    13:32.71      143403836    ---   --   ---xx   GD83-09-02D2T05.shn
     2:37.27       27758348    ---   --   ---xx   GD83-09-02D3T01.shn
     5:38.54       59750252    ---   --   ---xx   GD83-09-02D3T02.shn
     9:59.56      105795356    ---   --   ---xx   GD83-09-02D3T03.shn
     7:51.01       83086796    ---   --   ---xx   GD83-09-02D3T04.shn
     7:50.65       83060924    ---   --   ---xx   GD83-09-02D3T05.shn
     8:12.36       86873516    ---   --   ---xx   GD83-09-02D3T06.shn
     9:04.61       96105116    ---   --   ---xx   GD83-09-02D3T07.shn
     7:27.04       78860428    -b-   --   ---xx   GD83-09-02D3T08.shn
   180:52.35     1914376308 B                     (totals for 23 files, 0.6107 o
verall compression ratio)

Show Checksums
shn-md5
39c0efb97e0cf13a3da167fdc3f7fc9b *gd83-09-02d1t01.shn
1f9005616499779cd7d70b6823bbfdf5 *gd83-09-02d1t02.shn
b01f73250fa8b704475729037eecdaab *gd83-09-02d1t03.shn
b623cbe15b1cfba918abb9729d9225d6 *gd83-09-02d1t04.shn
bd47a8eb1324cbf12c997438cf94fc5c *gd83-09-02d1t05.shn
eb73d33504d617ccc2d884c67b75c409 *gd83-09-02d1t06.shn
a0a835b80e285643be31c362f0a66854 *gd83-09-02d1t07.shn
5815709658981dee38f53bc0f096a6a8 *gd83-09-02d1t08.shn
41f9eac5d7f4e15dce9e18a26316dcc6 *gd83-09-02d1t09.shn
b0ae5349740f5c7375fdbaba013c35d3 *gd83-09-02d1t10.shn
bc4e6b9a7351c54dfaebbd8177e546c2 *gd83-09-02d2t01.shn
03d2be6da8f754156b75e89cb74b25e2 *gd83-09-02d2t02.shn
bd5854200dc470e0180243f31c8047b9 *gd83-09-02d2t03.shn
30b6ef0fdfb9e6fce5bdec5774390cd3 *gd83-09-02d2t04.shn
0c9740c9e47ed204e877e917bfc993df *gd83-09-02d2t05.shn
6e97396ca80e93efd3e690fae4660f4e *gd83-09-02d3t01.shn
61e8ee2a11a47affb03154767d5f6df4 *gd83-09-02d3t02.shn
40506c568b5ae356cd9766f4bbdd4515 *gd83-09-02d3t03.shn
72b8b9a0fba5d720d988a933ad3fdf0f *gd83-09-02d3t04.shn
7909706adfb498462ba15a3a8a4b3cbd *gd83-09-02d3t05.shn
0718771898b88053ba217df29746798c *gd83-09-02d3t06.shn
0c9620e9233ac953fcd4e4d297518be6 *gd83-09-02d3t07.shn
92a434a6a0055b1bef12dc367975fd85 *gd83-09-02d3t08.shn
st5
52d030e7c4dc95e8402750c9f4adb8ad [shntool] gd83-09-02d1t01.shn
f6e01899b5dc41a78a514a63d7d88aa7 [shntool] gd83-09-02d1t02.shn
f5081e080af4248b14326d2f35f4cd80 [shntool] gd83-09-02d1t03.shn
fd37ba992c4b88525e7188920c319b66 [shntool] gd83-09-02d1t04.shn
c92bbb19a8d346e7b3de9b89682b36f7 [shntool] gd83-09-02d1t05.shn
f82ce3d0e2d32bf977d8c28b0cf2858a [shntool] gd83-09-02d1t06.shn
72871a96c5e6bb835ff749af3d55317f [shntool] gd83-09-02d1t07.shn
59b38e6ac7b427380a5e455831b4301d [shntool] gd83-09-02d1t08.shn
446dfff97062115874a6eefd1d51babc [shntool] gd83-09-02d1t09.shn
50f6325cb2ce9b669e5309a1786905c9 [shntool] gd83-09-02d1t10.shn
796d33dca1d44ada320154e0002d4878 [shntool] gd83-09-02d2t01.shn
ce6a68b567833e89c38d0e37aeafb308 [shntool] gd83-09-02d2t02.shn
0a317e75a140057e949d2499542bf749 [shntool] gd83-09-02d2t03.shn
77a3084556a4a002e1a971e75c2bd524 [shntool] gd83-09-02d2t04.shn
410ae0b1e766f44da554da0904529085 [shntool] gd83-09-02d2t05.shn
db26cad38b1e40fd5fb43305162606a7 [shntool] gd83-09-02d3t01.shn
d89625ad2e6d9442061a3ff1f1c15d1f [shntool] gd83-09-02d3t02.shn
d88021b91ee0580707c2d42e18aba145 [shntool] gd83-09-02d3t03.shn
75d7f7a7ce977f0f784d369f1de1eeaf [shntool] gd83-09-02d3t04.shn
5b21512d14dc1be99c14da271dcf71a8 [shntool] gd83-09-02d3t05.shn
e0c344a842d64d6288186df511b30ef6 [shntool] gd83-09-02d3t06.shn
cbca58e0b0418dc55ed6eabf8c313a10 [shntool] gd83-09-02d3t07.shn
79fc12bad5bea16e3e119f1d5d5c4a5f [shntool] gd83-09-02d3t08.shn

Comments
Add Comment
Other Sources (comments)
FOB AUD PCM(dbx)> dbx... (2) SBD> cassette master>... (3) Source: FOB AUD PCM (DBX)... (0) 10th Row Center 2 BeyerM160... (0) flac16; Matrix by... (0) flac16, FOB MAC 2... (0) flac16/44.1 ... (0) flac24/48 Master:... (0)
Date User Comment
07/16/2018 [email protected] I know that we can put our discs changes where we want, I just don't understand why you would move it is in the middle of Eyes > Jam. It kills the flow, best to leave it between drums and space.
07/30/2018 [email protected] this is from dick's 1st gen cassette