Browse Collections Artists Sources   Search Dates

Add Show    List Management    Help


Grateful Dead 10/13/94
Madison Square Garden, New York, NY
Comments Add Comment    Source Collectors    Add to Collection    Add to Want List    History
Source # 33822 Other Sources
Entered by Matt Vernon
Checksums ffp , orig-flac-replaygain-md5 , flac-md5
Disc Counts 2 / 3
Media Size
Date Circulated
Date Added
04/01/2006
04/12/2006
Source Summary Seamless fix of shn id 33299 - SBD -> Dat -> Cassette Master -> Dat -> CD -> EAC -> FLAC. Note Added 11/9/08: Reflac version w/o replay gain added. See info file for details 
  Archive
Source Information - Download Text | Download Zip
Grateful Dead - October 13, 1994
Madison Square Garden - New York, NY
------------------------------------------------------------------------
Fix of shnid 33299

I made the transition between CDs 2 and 3 seamless.  SBEs resulting
from the fix were fixed and verified using shntool.  Many thanks to
Charlie for seeding this show and providing plenty of overlap between
the two CDs.

Bill Tetzeli ([email protected])
4/1/2006
------------------------------------------------------------------------
When this source was first circulated, the flac files contained
REPLAYGAIN tags. The wav files compressed inside the flac files are
fine, but if you listen to the flac files themselves using a player
like WinAMP, these tags cause all the tracks to be played at the same
volume. That's not good for concerts where some tracks are supposed to
be louder than others.

There's a new version of this source available. It has exactly the
same wav files; it's just the flac wrapper that's different, the
wrapper doesn't have REPLAYGAIN set anymore. The new version has the
same ffp file (since the wav's are the same), but a new md5 file
(since the flac files are different). The md5 file for the old source
is called "orig-flac-replaygain-md5"; the md5 file for the good new
source is called "flac-md5". If you have a source for this that
matches the ffp, you can create the new source by unflac'ing the old
source and then recompressing at flac level 8 using the flac command
line tool or the flac frontend.

From now on, only the new version of the source should be circulated.

SteveSw - Nov, 2008
------------------------------------------------------------------------

Recording Info:
SBD -> Dat -> Cassette Master -> Dat -> CD -> EAC -> FLAC
(3 Discs Audio / 2 Discs FLAC)

Patched By Charlie Miller
[email protected]
March 25, 2006

Patch Info:
Drop out in Touch Of Grey patched with aud
Diginoise in Wang Dang Doodle patched with aud

Notes:
-- All sources provided by Tim Wiley
-- This SBD source does NOT have NR applied to it
-- The AUD source was remastered with Samplitude
-- All patching done with Samplitude

Set 1:
d1t01 - Tuning
d1t02 - Touch Of Grey
d1t03 - Wang Dang Doodle
d1t04 - Loser
d1t05 - Mama Tried ->
d1t06 - Mexicali Blues
d1t07 - Dupree's Diamond Blues
d1t08 - When I Paint My Masterpiece
d1t09 - Loose Lucy
d1t10 - Let It Grow

Set 2:
d2t01 - Foolish Heart
d2t02 - Playing In The Band ->
d2t03 - Uncle John's Band ->
d2t04 - Jam ->
d2t05 - Drums ->
d3t01 - Space ->
d3t02 - The Other One ->
d3t03 - Wharf Rat ->
d3t04 - Johnny B. Goode

Encore:
d3t05 - It's All Over Now, Baby Blue

==========

    length     expanded size    cdr  WAVE problems  fmt   ratio  filename
     0:23.52        4179548 B   ---   --   ---xx   flac  0.5478  gd94-10-13d1t01.flac
     6:46.70       71783084 B   ---   --   ---xx   flac  0.7175  gd94-10-13d1t02.flac
     6:28.61       68586716 B   ---   --   ---xx   flac  0.6820  gd94-10-13d1t03.flac
     8:27.19       89479532 B   ---   --   ---xx   flac  0.6586  gd94-10-13d1t04.flac
     2:35.53       27466700 B   ---   --   ---xx   flac  0.7039  gd94-10-13d1t05.flac
     6:42.04       70922252 B   ---   --   ---xx   flac  0.6739  gd94-10-13d1t06.flac
     6:06.64       64712972 B   ---   --   ---xx   flac  0.6951  gd94-10-13d1t07.flac
     5:25.36       57414716 B   ---   --   ---xx   flac  0.6953  gd94-10-13d1t08.flac
     9:36.17      101646428 B   ---   --   ---xx   flac  0.6571  gd94-10-13d1t09.flac
    12:43.47      134703788 B   ---   --   ---xx   flac  0.6936  gd94-10-13d1t10.flac
    10:57.46      116003036 B   ---   --   ---xx   flac  0.6932  gd94-10-13d2t01.flac
    10:54.69      115527932 B   ---   --   ---xx   flac  0.6951  gd94-10-13d2t02.flac
    12:06.13      128097020 B   ---   --   ---xx   flac  0.6809  gd94-10-13d2t03.flac
     5:59.20       63374684 B   ---   --   ---xx   flac  0.6633  gd94-10-13d2t04.flac
    13:40.57      144782108 B   ---   --   ---xx   flac  0.5989  gd94-10-13d2t05.flac
    11:40.63      123628220 B   ---   --   ---xx   flac  0.5784  gd94-10-13d3t01.flac
    10:23.69      110059532 B   ---   --   ---xx   flac  0.6916  gd94-10-13d3t02.flac
    11:39.22      123355388 B   ---   --   ---xx   flac  0.6690  gd94-10-13d3t03.flac
     6:48.31       72044156 B   ---   --   ---xx   flac  0.6868  gd94-10-13d3t04.flac
     7:18.51       77383196 B   ---   --   ---xx   flac  0.6551  gd94-10-13d3t05.flac
   166:46.39     1765151008 B                            0.6678  (20 files)
Show Checksums
ffp
gd94-10-13d1t01.flac:031003e0fa920d6da6c0f4e749749640
gd94-10-13d1t02.flac:41c5faf7d69d29edee65083bcaa0d58f
gd94-10-13d1t03.flac:d43921eef079759573098da5f5cc2b17
gd94-10-13d1t04.flac:f38c827e14506f4f3764afbcd337a684
gd94-10-13d1t05.flac:b5cdc9291fa0e43b12678457dcc1ebf1
gd94-10-13d1t06.flac:4925869656bc7e4f776670e2746b55de
gd94-10-13d1t07.flac:dd590a16af085592e5cc523283aa34cb
gd94-10-13d1t08.flac:6e8d25ce0f00e4a7fad653a3a59fd569
gd94-10-13d1t09.flac:14daed5d99547be236a6c9f1c701f358
gd94-10-13d1t10.flac:f805b35561e58dce6ebe4c6ed551de2e
gd94-10-13d2t01.flac:12fef78a63c79ec9bb4df0e8ddb3f5b6
gd94-10-13d2t02.flac:f297af07c77c4ffb18e72df5ef764328
gd94-10-13d2t03.flac:008949a8a2e62fdfc569b283692960bb
gd94-10-13d2t04.flac:1e8d508080987f7df7f1665a51b98526
gd94-10-13d2t05.flac:fcc7c0df68f164090a813b116411ef72
gd94-10-13d3t01.flac:1453b472291fc22d6a10e4263e143e4b
gd94-10-13d3t02.flac:766bb886ce01d64a4afb709e9444b5c8
gd94-10-13d3t03.flac:d6773b436f9b6adaab54ea01e2153707
gd94-10-13d3t04.flac:3ac97d86c43fc367156a42c2411eafda
gd94-10-13d3t05.flac:e093c3b363d885629ba4e13e4d0d6643
orig-flac-replaygain-md5
be21c57ab8a85b0d80471b0890968e87 *gd94-10-13d1t01.flac
d2314f7eed21b01940d3cd53232ac8db *gd94-10-13d1t02.flac
4db6c45e1b600b40d9def302c45ba645 *gd94-10-13d1t03.flac
e467f5ea3154d1454532016151be363e *gd94-10-13d1t04.flac
c260178d7a128a58fb57c8901a0272ed *gd94-10-13d1t05.flac
405b35dfafc2a5bc410cd2f61cb13309 *gd94-10-13d1t06.flac
fb96d9dc8115bfe87a409e69ceacd8af *gd94-10-13d1t07.flac
14d16a1ed44fc2a2317d734eddcce9ec *gd94-10-13d1t08.flac
17f0990877dfcf61504e448ff8c0e457 *gd94-10-13d1t09.flac
7c474d1a6327ce9fc6aae0d203c1aa69 *gd94-10-13d1t10.flac
3530a2442057ba7be9b87d028f348a45 *gd94-10-13d2t01.flac
824af3246d0f3678afc505eb39469e5d *gd94-10-13d2t02.flac
f6da7d1c2700e2246cd76613ae550738 *gd94-10-13d2t03.flac
1bea6da2171a522e74b3078b45a85ece *gd94-10-13d2t04.flac
36679ef2558a32dc5f77893f88b9e804 *gd94-10-13d2t05.flac
a6f1d096129a6e107a33ea894ba87b6f *gd94-10-13d3t01.flac
dd37e95b07e6a6e4f1b7a072d198d36c *gd94-10-13d3t02.flac
73445fb65c9a6a42917e8bfa51b35187 *gd94-10-13d3t03.flac
c4c7147824ca6d85fbbd272be9ebdeaa *gd94-10-13d3t04.flac
20517a7593f4cf07e01262f98f3903e7 *gd94-10-13d3t05.flac
flac-md5
e8afa353120cbb4ba7408d02871a7719 *gd94-10-13d1t01.flac
32fae7a1eb6552380dcd45200ba70cb0 *gd94-10-13d1t02.flac
e19e2ad66be3b8b8fcc000b65e235513 *gd94-10-13d1t03.flac
0ac71b45e1b5b4c3c46e8dce8ccb03bb *gd94-10-13d1t04.flac
c5577f1e952a557a00abff21d9234184 *gd94-10-13d1t05.flac
4868db18f3cb9815c3df6dbeb7a08225 *gd94-10-13d1t06.flac
de9bfaffc9a6f49d896bac3ea7293099 *gd94-10-13d1t07.flac
d15f77cb9a581718edb400ab949441c1 *gd94-10-13d1t08.flac
a1950f79baf2518ecfb69cc6e5a409d8 *gd94-10-13d1t09.flac
51a3e4eeefc245a49fd5259f7b204e53 *gd94-10-13d1t10.flac
adcbd2e44c13bccffd5ba37d03a2e8a9 *gd94-10-13d2t01.flac
c3835b86dde4b650bf94c26e21e5e019 *gd94-10-13d2t02.flac
716c365c59f1e8dd9180e406bdfccc17 *gd94-10-13d2t03.flac
ec0f2645a609ff4e1d694138d3818528 *gd94-10-13d2t04.flac
86d0601adf747e162eda11026bac0c21 *gd94-10-13d2t05.flac
1e5f6b32c7a144b11c2275d467c29b03 *gd94-10-13d3t01.flac
bed4a00c34a81ac4fa0cd4f15ad82dc0 *gd94-10-13d3t02.flac
caa0cf6933d1d6ce72ac9fce12a02e92 *gd94-10-13d3t03.flac
6e6940341d5c78f56140440acec755a7 *gd94-10-13d3t04.flac
78b4bdf7492157c07de2a3de6659903d *gd94-10-13d3t05.flac

Comments
Add Comment
Other Sources (comments)
SBD> DAT> C> DAT> CDR> EAC>... (2) flac16; SBD -> Dat... (0) flac16/48; AUD:... (0) flac16; AUD: Schoeps... (0) flac16; Source: aud... (0) flac16/48kHz; Master... (0)
Date User Comment
11/09/2006 btet This was inadvertently FLAC encoded with replaygain. If you're playing the FLACs in Winamp you should reFLAC the files without replaygain option. If you're burning extracted .wavs to CD, these are unaffected and no reFLACing is necessary. I apologize for the error.