Browse Collections Artists Sources   Search Dates

Add Show    List Management    Help


Ween 07/29/99
Union Bar, Iowa City, IA
Comments Add Comment    Source Collectors    Add to Collection    Add to Want List    History
Source # 33889 Other Sources
Entered by Greg Yurkovic
Checksums md5 , ffp
Disc Counts 0 / 2
Media Size
Date Circulated
Date Added
2006-01-02
03/26/2006
Source Summary JP's homebrew binaurals > D7 > D8 > DA-20mkII > CD-RW33 > CDR > dEDIT+dEQ > CDR > SHN > Foobar2000 > FLAC (except first three songs sourced from miniDV-MASTER VIDEO > VHS VIDEO > DAT > CDR) 
  Archive
Source Information - Download Text | Download Zip
Ween

07/29/99 Union Bar: Iowa City, IA

source*: JP's homebrew binaurals > D7 > DAT > CDR > dEDIT + dEQ > CDR > .shn
* first three songs sourced from miniDV-MASTER VIDEO > VHS VIDEO > DAT > CDR

location: front of lighting board, with 8 foot micstand

datm>dat transfer: D8>DA20MKII
vid>dat transfer: RCA HiFi VCR>DA20MKII
dat>cdr transfers: DA20MKII>CDRw33

cdr>.shn transfer: eac>mkwact>.shn

SHN > Foobar2000 0.8.3 (converted-level 8 & bitverified identical) > FLAC

tapers: MB / JP / cps
eq/edit: FGE
seed: cps 4:20

comments: JP and i started out with Sennheiser shotguns, a mixing board,
          Tascam DAP1 DAT, Sony D7 DAT, and a Sony D8 DAT...  we arrived
          early and all levels/connections were aok...  during the first
          song i noticed the recording levels barely moving from -1db...
          we listened on headphones but were unsure what the problem was
          (preamp in DAP1 brickwalled)...  during 'Take Me Away' i taped
          JP's stealth mics to the stand, pulled his deck from the patch
          chain, and started to record what would turn out to be the only
          listenable DAT of the evening...  thank you to Boognish and all
          others (MB/JP/FGE) who helped assemble this sh*t...  very brown.

setlist:

Disc 1:
1. intro *
2. Pork Roll Egg & Cheese *
3. Don?t Get 2 Close... *
4. Take Me Away *
5. Sweet Texas Fire
6. The Golden Eel
7. The Stallion (Pt.3)
8. Voodoo Lady
9. Back to Basom
10. The HIV Song
11. The Mollusk
12. Never Squeal on the Pusher
13. Wavin? My Dick in the Wind
14. Even If You Don?t
15. Dr. Rock
16. I Can?t Put My Finger on It
17. Buckingham Green

Disc 2:
1. Spinal Meningitis
2. Baby Bitch
3. Roses Are Free
4. Pumpin? For the Man
5. Mutilated Lips
6. Booze Me Up & Get Me High
7. Blarney Stone
8. Bananas & Blow
9. LMLYP

ween1999-07-29d1t01.flac:0bd7c014542095555c8f6077523b2273
ween1999-07-29d1t02.flac:7a4bd526c5febfbed907dcce166c013f
ween1999-07-29d1t03.flac:e20521e51d6cbcee2975b86ea881397a
ween1999-07-29d1t04.flac:ee33f3d734479c1ca9530305e02f93b8
ween1999-07-29d1t05.flac:115e4d9cfc80b28cb8c0ad8f06d12ed6
ween1999-07-29d1t06.flac:e88284aa0a7662f2ec84d6491a173b8e
ween1999-07-29d1t07.flac:afaaeb3ab96202c373b6175c52ca5fc2
ween1999-07-29d1t08.flac:85a93ec8887e30e17a56ac63e310f5dd
ween1999-07-29d1t09.flac:0d75bf2836735aad252034bb16448941
ween1999-07-29d1t10.flac:d0cc0d58913986e3d84d4c808966532a
ween1999-07-29d1t11.flac:8e17e4563f1f9e2ee584b7ccfd8b9d8c
ween1999-07-29d1t12.flac:2b0c10f527826c62e4dca0ec82ec037e
ween1999-07-29d1t13.flac:931c0b17db4dde457c8441410b75496c
ween1999-07-29d1t14.flac:f08ff2179d33b3bf84f44353a6fbfeda
ween1999-07-29d1t15.flac:fd7229d6a1a67d2faa3e0e5d4770ef4a
ween1999-07-29d1t16.flac:6781bf28d1545d3463f63bb54322b587
ween1999-07-29d1t17.flac:d2b2780b23bf84132efeb4e35f58f6e6
ween1999-07-29d2t01.flac:df333e122e119214e81cb563895ec9ab
ween1999-07-29d2t02.flac:f89ec9b44d7300a4865a98e996c6cee6
ween1999-07-29d2t03.flac:7b294646579a758d1508a47705145e5b
ween1999-07-29d2t04.flac:d35f9e7446ef78a215b96f00ef86d9b1
ween1999-07-29d2t05.flac:29c2107590ef1d895a40db9dabdd0692
ween1999-07-29d2t06.flac:188851a323462644ba239793f403df50
ween1999-07-29d2t07.flac:96ce49408b8acaf68ceed8e61ad20c75
ween1999-07-29d2t08.flac:418daddcac787514202d5b9a721c9434
ween1999-07-29d2t09.flac:0dbe3d35ee334899f485e11a54ba649f

    length     expanded size   cdr  WAVE problems filename
     1:25.65       15146924    ---   --   ---xx   ween1999-07-29d1t01.flac
     3:45.39       39781772    ---   --   ---xx   ween1999-07-29d1t02.flac
     4:04.37       43128668    ---   --   ---xx   ween1999-07-29d1t03.flac
     5:02.55       53402204    ---   --   ---xx   ween1999-07-29d1t04.flac
     4:18.63       45659420    ---   --   ---xx   ween1999-07-29d1t05.flac
     6:40.36       70644716    ---   --   ---xx   ween1999-07-29d1t06.flac
     3:44.39       39605372    ---   --   ---xx   ween1999-07-29d1t07.flac
     7:31.13       79587020    ---   --   ---xx   ween1999-07-29d1t08.flac
     4:30.66       47783276    ---   --   ---xx   ween1999-07-29d1t09.flac
     3:41.27       39047948    ---   --   ---xx   ween1999-07-29d1t10.flac
     4:42.08       49763660    ---   --   ---xx   ween1999-07-29d1t11.flac
     3:40.45       38913884    ---   --   ---xx   ween1999-07-29d1t12.flac
     3:04.68       32617580    ---   --   ---xx   ween1999-07-29d1t13.flac
     4:10.44       44203532    ---   --   ---xx   ween1999-07-29d1t14.flac
     4:54.17       51901628    ---   --   ---xx   ween1999-07-29d1t15.flac
     6:16.43       66427580    ---   --   ---xx   ween1999-07-29d1t16.flac
     4:30.34       47708012    ---   --   ---xx   ween1999-07-29d1t17.flac
     4:58.03       52574300    ---   --   ---xx   ween1999-07-29d2t01.flac
     4:30.24       47684492    ---   --   ---xx   ween1999-07-29d2t02.flac
     6:38.57       70341308    ---   --   ---xx   ween1999-07-29d2t03.flac
     3:20.30       35350604    ---   --   ---xx   ween1999-07-29d2t04.flac
     5:28.53       57983900    ---   --   ---xx   ween1999-07-29d2t05.flac
     4:46.61       50593916    ---   --   ---xx   ween1999-07-29d2t06.flac
    14:59.70      158748284    ---   --   ---xx   ween1999-07-29d2t07.flac
     4:25.02       46750748    ---   --   ---xx   ween1999-07-29d2t08.flac
    25:12.18      266759180    ---   --   ---xx   ween1999-07-29d2t09.flac
   150:25.42     1592109928 B                     (totals for 26 files, 0.5182 overall compression ratio)
Show Checksums
md5
9b9b07d7be14ab812f197f351d5adecf *ween1999-07-29d1t01.flac
b2afe0c4ed00b64435f32f0222445c8b *ween1999-07-29d1t02.flac
9fe23cfb8e05db1cf19e56d2312e51f0 *ween1999-07-29d1t03.flac
bde36144739d71a079d2764020705a53 *ween1999-07-29d1t04.flac
8d10c89e6f883d3f6b472da7b52e7e78 *ween1999-07-29d1t05.flac
3c150eaf8b64b826dcdb034f9f2d4bd2 *ween1999-07-29d1t06.flac
ee3de21182ef5389ac9f9d32e3d8b898 *ween1999-07-29d1t07.flac
4c8e6078047b912fdc0319044132d6a0 *ween1999-07-29d1t08.flac
3cabd3715df476b61780e057876e49a4 *ween1999-07-29d1t09.flac
9d1296c86e16f111c83d91844b6d3aeb *ween1999-07-29d1t10.flac
a125f9b7891f35722715f5d30112c106 *ween1999-07-29d1t11.flac
c47ca52bdf442956f13591de988db8ea *ween1999-07-29d1t12.flac
0b19b6663fd5c2e9cfa81c5d14e18b70 *ween1999-07-29d1t13.flac
60126c612e3a5f5b864cc1733430c731 *ween1999-07-29d1t14.flac
fad8a990c601d7d60e40326a41a7b679 *ween1999-07-29d1t15.flac
46a15654274e0ff2d9765f7335bb3e67 *ween1999-07-29d1t16.flac
220229f09b25e66134d1bb67d5c8a55c *ween1999-07-29d1t17.flac
bbb2f9bc73a648d18941c4faa16ea71a *ween1999-07-29d2t01.flac
843b7335cb615f2d8b933fa9b3a97b45 *ween1999-07-29d2t02.flac
8cdfd2d3091be41c7208123e2b5be44a *ween1999-07-29d2t03.flac
f6d689684713bb2128609ffe2b7312fc *ween1999-07-29d2t04.flac
c0eae7f07ed7e2e06239a7281dca0bde *ween1999-07-29d2t05.flac
c936081ffad7ef728ca37e32865491c2 *ween1999-07-29d2t06.flac
bbd13c07909e9155261b42771d3fd15e *ween1999-07-29d2t07.flac
f99415eca7bb6ad333e6868af6d632ca *ween1999-07-29d2t08.flac
aa8029c73bc97b3963d928920223bb9b *ween1999-07-29d2t09.flac
ffp
ween1999-07-29d1t01.flac:0bd7c014542095555c8f6077523b2273
ween1999-07-29d1t02.flac:7a4bd526c5febfbed907dcce166c013f
ween1999-07-29d1t03.flac:e20521e51d6cbcee2975b86ea881397a
ween1999-07-29d1t04.flac:ee33f3d734479c1ca9530305e02f93b8
ween1999-07-29d1t05.flac:115e4d9cfc80b28cb8c0ad8f06d12ed6
ween1999-07-29d1t06.flac:e88284aa0a7662f2ec84d6491a173b8e
ween1999-07-29d1t07.flac:afaaeb3ab96202c373b6175c52ca5fc2
ween1999-07-29d1t08.flac:85a93ec8887e30e17a56ac63e310f5dd
ween1999-07-29d1t09.flac:0d75bf2836735aad252034bb16448941
ween1999-07-29d1t10.flac:d0cc0d58913986e3d84d4c808966532a
ween1999-07-29d1t11.flac:8e17e4563f1f9e2ee584b7ccfd8b9d8c
ween1999-07-29d1t12.flac:2b0c10f527826c62e4dca0ec82ec037e
ween1999-07-29d1t13.flac:931c0b17db4dde457c8441410b75496c
ween1999-07-29d1t14.flac:f08ff2179d33b3bf84f44353a6fbfeda
ween1999-07-29d1t15.flac:fd7229d6a1a67d2faa3e0e5d4770ef4a
ween1999-07-29d1t16.flac:6781bf28d1545d3463f63bb54322b587
ween1999-07-29d1t17.flac:d2b2780b23bf84132efeb4e35f58f6e6
ween1999-07-29d2t01.flac:df333e122e119214e81cb563895ec9ab
ween1999-07-29d2t02.flac:f89ec9b44d7300a4865a98e996c6cee6
ween1999-07-29d2t03.flac:7b294646579a758d1508a47705145e5b
ween1999-07-29d2t04.flac:d35f9e7446ef78a215b96f00ef86d9b1
ween1999-07-29d2t05.flac:29c2107590ef1d895a40db9dabdd0692
ween1999-07-29d2t06.flac:188851a323462644ba239793f403df50
ween1999-07-29d2t07.flac:96ce49408b8acaf68ceed8e61ad20c75
ween1999-07-29d2t08.flac:418daddcac787514202d5b9a721c9434
ween1999-07-29d2t09.flac:0dbe3d35ee334899f485e11a54ba649f

Comments
Add Comment
Date User Comment