Browse Collections Artists Sources   Search Dates Setlists

Add Show    List Management    Forums    Help


Grateful Dead 01/18/69
Playboy Club, West Hollywood, CA
Comments Add Comment    Source Collectors    Add to Collection    Add to Want List    History
Source # 33931 Other Sources
Entered by Matt Vernon
Checksums ffp , flac-md5
Disc Counts 1 / 1
Media Size
Date Circulated
Date Added
04/14/2006
04/13/2006
Source Summary flac16; Source: PCM wav audio from U.K. Mutt's DVD release 
  Archive
Source Information - Download Text | Download Zip
Grateful Dead
1969-01-18
Playboy After Dark
CBS Studios in West Hollywood, CA

Source: DVD audio from U.K. Mutt's release (VHS master tape of a 1992 rebroadcast> audio processed in Soundforge 6.0, 48kHz, 1536kbps wav, mono) extracted to 44.1kHz, 1411kbps wav with DVD Audio Extractor> tracks cut with GoldWave> compressed to flac with EasyFlac level 5. No SBE's verified with shntool. No other manipulation of audio done.

1. Hefner interviews Garcia
2. Mountains of the Moon
3. St. Stephen (fades out)
4. Closing / Turn On Your Lovelight (segment)

    length     expanded size   cdr  WAVE problems filename
     1:57.23       20692940    ---   --   -----   gd69-01-18t01.wav
     3:54.39       41369372    ---   --   -----   gd69-01-18t02.wav
     4:04.57       43175708    ---   --   -----   gd69-01-18t03.wav
     1:22.70       14629484    ---   --   -----   gd69-01-18t04.wav
    11:19.39      119867504 B                     (totals for 4 files, 1.0000 overall compression ratio)
Show Checksums
ffp
gd69-01-18t01.flac:9535312f3fb255bac14ce16e25e2443d
gd69-01-18t02.flac:d7922cf018b5ee4d4188831f452e08d0
gd69-01-18t03.flac:deb496fdaf290795218ce1426247051b
gd69-01-18t04.flac:ab5c67711f9bdfe823c3a76694a01950
flac-md5
acf19bd61bd1e4a15a19569122897a53 *gd69-01-18t01.flac
d209f324cb2162f4a4292434e39aade8 *gd69-01-18t02.flac
37d2b3a9e88fc6be538648d17aba3c6f *gd69-01-18t03.flac
9143ad1a353970d663a45f6992aeb28e *gd69-01-18t04.flac

Comments
Add Comment
Date User Comment