Browse Collections Artists Sources   Search Dates

Add Show    List Management    Help


Garcia 02/28/91
Warfield Theater, San Francisco, CA
Comments Add Comment    Source Collectors    Add to Collection    Add to Want List    History
Source # 34070 Other Sources
Entered by Joe Jupille
Checksums flac.ffp
Disc Counts 2 / 2
Media Size
Date Circulated
Date Added
April 2006
04/23/2006
Source Summary JGB: Schoeps MK4 > DAT > CDR > WAV > FLAC16. 
Source Information - Download Text | Download Zip
Jerry Garica Band
02/28/1991
The Warfield
San Francisco, CA  

Source:  Schoeps MK4 > DAT > CDR > WAV > FLAC16.

Disc I - Set I
01  The Way You Do The Things You Do  
02  Mission In The Rain  
03  You Never Can Tell  
04  Simple Twist Of Fate  
05  I Second That Emotion  
06  Like A Road  
07  My Sisters And Brothers  
08  Deal  

Disc II - Set II
01  Everybody Needs Somebody To Love  
02  Stop That Train  
03  Waiting For A Miracle  
04  Think  
05  Lay Down Sally  
06  That Lucky Old Sun (Just Rolls Around Heaven All Day)  
07  Midnight Moonlight  

Comments:
Excellent sound quality.  Moderately intrusive crowd noise at times.
Only source in circulation at the time of seeding.

Thanks to Slip for the CDs.
DAE (EAC) > Wavelab 5 (pauses between tracks smoothed with crossfades, a couple of dropouts repaired, overall levels/dynamic range optimized for 16 bit) > CDWAV 1.9 > FLAC (level 8) by C.Ladner.

Initially seeded at bt.etree.org, April 2006.

    length     expanded size   cdr  WAVE problems filename
    10:35.46      112122236    ---   --   ---xx   jgb1991-02-28d1t01.flac
     9:02.37       95695868    ---   --   ---xx   jgb1991-02-28d1t02.flac
     7:06.54       75273452    ---   --   ---xx   jgb1991-02-28d1t03.flac
    10:40.31      112968956    ---   --   ---xx   jgb1991-02-28d1t04.flac
     9:18.71       98598236    ---   --   ---xx   jgb1991-02-28d1t05.flac
     8:15.49       87433292    ---   --   ---xx   jgb1991-02-28d1t06.flac
     4:04.39       43133372    ---   --   ---xx   jgb1991-02-28d1t07.flac
     9:09.15       96878924    ---   --   ---xx   jgb1991-02-28d1t08.flac
    10:59.36      116332316    ---   --   ---xx   jgb1991-02-28d2t01.flac
     7:23.43       78246380    ---   --   ---xx   jgb1991-02-28d2t02.flac
     6:23.63       67709420    ---   --   ---xx   jgb1991-02-28d2t03.flac
     6:45.16       71479676    ---   --   ---xx   jgb1991-02-28d2t04.flac
     8:13.30       87035804    ---   --   ---xx   jgb1991-02-28d2t05.flac
    10:56.19      115763132    ---   --   ---xx   jgb1991-02-28d2t06.flac
     6:01.30       63751004    ---   --   ---xx   jgb1991-02-28d2t07.flac
   124:56.54     1322422068 B                     (totals for 15 files, 0.6592 overall compression ratio)

Show Checksums
flac.ffp
jgb1991-02-28d1t01.flac:96a4720b24dfca2f5e6f137b1025426c
jgb1991-02-28d1t02.flac:ba2673e1d1c66e86c702c68a0053701b
jgb1991-02-28d1t03.flac:549401ed3bc55a3f9ab03f28abb38c97
jgb1991-02-28d1t04.flac:424822f4cad1e6871099c5b937853064
jgb1991-02-28d1t05.flac:90011281891e703dccc60f8d4a4abd2f
jgb1991-02-28d1t06.flac:b8a9acbe0a5dd525615ffea13a118cf3
jgb1991-02-28d1t07.flac:df6edfb0260ba638b571698bc9fdb0ba
jgb1991-02-28d1t08.flac:94007d37493cbe32a2fa78233246a887
jgb1991-02-28d2t01.flac:e804ba64a2b8858c2851be5fd60bcccc
jgb1991-02-28d2t02.flac:23ebf313a66f85a0301485b76a94db05
jgb1991-02-28d2t03.flac:f3df98d21ed211c49e3cfdadcfdc3971
jgb1991-02-28d2t04.flac:b477759883827c62d5f8a8c30015550f
jgb1991-02-28d2t05.flac:abba8475733df330c75108039feb7e5f
jgb1991-02-28d2t06.flac:2e2d3bfbfd99a253a0dafdf9b7544381
jgb1991-02-28d2t07.flac:cea032883d4aa4b4f4e49b79e51920b3

Comments
Add Comment
Other Sources (comments)
Jerry Garcia Band.... (0) JGB; s2 only; flac1644; "Da... (0) JGB; flac1648: Schoeps... (0)
Date User Comment
04/06/2011 charliemiller This either has a cassette gen or improper emphasis decoding.