Browse Collections Artists Sources   Search Dates

Add Show    List Management    Help


Grateful Dead 05/15/83
Greek Theatre, U. Of California, Berkeley, CA
Comments Add Comment    Source Collectors    Add to Collection    Add to Want List    History
Source # 34167 Other Sources
Entered by Matt Vernon
Checksums flac-md5 , ffp
Disc Counts 1 / 2
Media Size
Date Circulated
Date Added
04/24/2006
04/24/2006
Source Summary flac16; Set 2 ONLY; Source: 2 Nak 700's > Bass Box EQ > Sony D5 > Sony D5 > Maxell MX 90's Taper: unknown Mark McCue Master #05 Transfer by Mark McCue. EAC, patch, conversion, and seeding to bt.etree.org by Alex Ford 
  Archive
Source Information - Download Text | Download Zip
Grateful Dead
Date: 05/15/83
Greek Theatre
Berkeley, CA

Set 2 Only:

Source: 2 Nak 700's > Bass Box EQ > Sony D5 > Sony D5 > Maxell MX 90's

Taper: unknown
Mark McCue Master #05

Transfer: 1st gen Cassette>Sony D5>Tascam Stand Alone burner(tracked on the fly)>EAC> HD>CDR>EAC>.wav files joined, patched(CEP 2.0) & retracked (CD Wave  Editor)>TLH>FLAC16.  Files encoded @ level 6. Sector boundaries verified with TLH.
Transfer by Mark McCue.
EAC, patch, conversion, and seeding to bt.etree.org by Alex Ford



Set II:

d1t01  Happy Birthday Dan Healy
d1t02  Help On The Way ->
d1t03  Slipknot! ->
d1t04  Franklin's Tower ->
d1t05  Samson and Delilah
d1t06  He's Gone ->
d1t07  Drums ->
d2t01  Space Jam ->
d2t02  Truckin' ->
d2t03  Stella Blue ->
d2t04  Throwing Stones ->
d2t05  Not Fade Away
d2t06  NFA Chant
Encore:
d2t07  It's All Over Now, Baby Blue

Notes:

- d1t07 @ 4:45 patch added (taken from http://db.etree.org/shninfo_detail.php?shnid=2217) to make Drums complete.
- d2t04 @ 7:51 missing audio in "ashes, ashes all fall down"
- d2t07 contains slight digi noise
- Drums and Space jam with Flora Purim & Airto Moreira
- Not Fade Away with John Cipollina

Shntool Output:

    length     expanded size   cdr  WAVE problems filename
     1:04.52       11411948    ---   --   ---xx   gd1983-05-15d1t01.flac
     8:01.33       84926060    ---   --   ---xx   gd1983-05-15d1t02.flac
     0:54.34        9605612    ---   --   ---xx   gd1983-05-15d1t03.flac
    13:32.33      143314460    ---   --   ---xx   gd1983-05-15d1t04.flac
     7:45.74       82200092    ---   --   ---xx   gd1983-05-15d1t05.flac
     9:21.70       99125084    ---   --   ---xx   gd1983-05-15d1t06.flac
     9:45.15      103229324    ---   --   ---xx   gd1983-05-15d1t07.flac
    18:11.25      192511244    ---   --   ---xx   gd1983-05-15d2t01.flac
     7:40.71       81311036    ---   --   ---xx   gd1983-05-15d2t02.flac
     9:29.34      100451612    ---   --   ---xx   gd1983-05-15d2t03.flac
     8:05.47       85664588    ---   --   ---xx   gd1983-05-15d2t04.flac
     6:09.05       65103404    ---   --   ---xx   gd1983-05-15d2t05.flac
     2:47.15       29494124    ---   --   ---xx   gd1983-05-15d2t06.flac
     7:08.05       75511004    ---   --   ---xx   gd1983-05-15d2t07.flac
   109:57.63     1163859592 B                     (totals for 14 files, 0.6174 overall compression ratio)

Show Checksums
flac-md5
e0a76bce82645c92d65cb18d510971b7 *gd1983-05-15d1t01.flac
9174b12875d8036b66c65b9323930c0e *gd1983-05-15d1t02.flac
f638dd448266f7793f946d087ded8f56 *gd1983-05-15d1t03.flac
a8ea5b864f178a6b6f4eef8082a9c900 *gd1983-05-15d1t04.flac
9dc860f7cf90cfbfab01c8bfe7b0ae75 *gd1983-05-15d1t05.flac
2eaf9a81bee111babab985558ed2ae40 *gd1983-05-15d1t06.flac
be023a3a6f038583256661ee417af116 *gd1983-05-15d1t07.flac
fcf7dc95940d3fe79c056f6e8947b8c5 *gd1983-05-15d2t01.flac
6a0b7068eeca1654e632a376ff148453 *gd1983-05-15d2t02.flac
81d513df1ab361d82b0f373719bedbe4 *gd1983-05-15d2t03.flac
66c7cd7dc1c4f5381054e11104719573 *gd1983-05-15d2t04.flac
315590c90a37a58f31771c162798e14f *gd1983-05-15d2t05.flac
2e5053980d5bb7a3e1d602abbeedecc4 *gd1983-05-15d2t06.flac
1ee8999c2ec89c41c15c3bca7dee9a98 *gd1983-05-15d2t07.flac
ffp
gd1983-05-15d1t01.flac:9e7df729f13dad11c6f8146223399e8d
gd1983-05-15d1t02.flac:a64adf33d62905e8bb7a39943e2104cd
gd1983-05-15d1t03.flac:1d63378eb00134a992ce671d6ace549e
gd1983-05-15d1t04.flac:1902a2154b9590ef338b1baf767b075c
gd1983-05-15d1t05.flac:893cf6f6d82f8e20439e1394877950c8
gd1983-05-15d1t06.flac:4eb9b0bc390c5a64ae8fc8c2a80205cd
gd1983-05-15d1t07.flac:686628f8094dd858080d0f3ee49ba759
gd1983-05-15d2t01.flac:3180a327ebe4a994494a0366109d1ad7
gd1983-05-15d2t02.flac:129c6f6e34132f25b99ac6b5d37d3e6a
gd1983-05-15d2t03.flac:c396921c8a943b00fda52ace0305fc82
gd1983-05-15d2t04.flac:4ac685c464b97d5928b2e9f4500fa89e
gd1983-05-15d2t05.flac:29e10418da3bbc4998ce0cfcf1ee9a7b
gd1983-05-15d2t06.flac:3418e2b0894787a987f283fbb37fa746
gd1983-05-15d2t07.flac:def84c4c53b39e3a734ea01cb01f4f00

Comments
Add Comment
Other Sources (comments)
FOB Aud Sony ECM 220T >... (0) flac16; Recording... (0) flac16; Recording... (0) flac16; Source:... (0)
Date User Comment