Browse Collections Artists Sources   Search Dates

Add Show    List Management    Help


Grateful Dead 08/04/79
Oakland Auditorium Arena, Oakland, CA
Comments Add Comment    Source Collectors    Add to Collection    Add to Want List    History
Source # 34259 Other Sources
Entered by dr.unclear
Checksums shn-md5 , st5
Disc Counts 2 / 3
Media Size
Date Circulated
Date Added
04/06/2006
04/26/2006
Source Summary Fix of soundboard shn id 9578 (sbd) by Bill Tetzeli - see info file for details  
  Archive
Source Information - Download Text | Download Zip
Grateful Dead
Oakland Auditorium
Oakland, CA
August 4, 1979
--------------------------------------------------------------------------------------
Fix of shnid 9578

I used CE2K to make the transition between CDs 2 and 3 seamless.  Shntool was used to fix resulting SBEs and verify sector boundaries.  Thanks to Willy for providing the overlap between the two discs needed to make this fix.

Bill Tetzeli ([email protected])
4/6/2006
--------------------------------------------------------------------------------------
SBD>MC>C>DAT>CDR

DISC ONE

1st Set

-Jack Straw (Missing)
They Love Each Other
Mama Tried>
Mexicali
Peggy O
Minglewood
Tennessee Jed
El Paso
Althea
Lost Sailor>
Deal

DISC TWO

2nd Set

Passenger
Friend of the Devil
Samson//
Shakedown>
Playin'>
Drums>


DISC THREE

2nd Set (cont)

Space>
Stella Blue>
Sugar Mag's>
Sunshine Daydream

Encore

U.S. Blues

Notes-

-First Althea and Lost Sailor

-Show Opener (Jack Straw); Missing per Deadlists
-d1t02 (Pre Mama Tried, Bob Talking); Subsecond d/o
-d1t05 (Minglewood); 1/2 second d/o @ 4:52

-d2t03 (Samson); Cuts (missing 5 seconds)
-d2t05 (Playin'); d/o @ 11:30 (MC Flip ?)
-d2t06 (Drums); d/o @ 10:06; This is also the disc break

-d3t01 (Space); Muffled @ 3:02

-I used CD Wave and Shntool to retrack and verify sb's, and CE2K for all editing.

EAC/SHN by Willy
[email protected]
Seeded to etree 05/23/02
Audio discs provided by Paul B

Another installment of The Music Never Stopped Project!

MD5:

33ac1c69e43645dd1c0f585763e8e71c *gd79-08-04d1t08.shn
005232b3b68e2021a83c414a44efd1b5 *gd79-08-04d1t02.shn
380f44e85e8753f5d34ef13d0dccc2af *gd79-08-04d1t03.shn
80e148e185b1c1d7d93e7eb6c34d7349 *gd79-08-04d1t04.shn
29cd1f80f13cae17a00855a2de45bcf1 *gd79-08-04d1t05.shn
e378098281b5307bb98ad5925ce9c06b *gd79-08-04d1t06.shn
90675b531280365333b520950ac480c5 *gd79-08-04d1t07.shn
5f9914155a1d78a23b3b6a8058e9af3f *gd79-08-04d1t01.shn
bc18ad6cdc79d6573e59a0932ae65bb6 *gd79-08-04d1t09.shn
3fcd827b64e1f5920edca6937a6d7416 *gd79-08-04d1t10.shn
313371cc769009bec7d8c15ac193deec *gd79-08-04d2t04.shn
c58fc9aa35f597c8f3343de8c36e63a7 *gd79-08-04d2t02.shn
d9bf8d646f4d626e3d305b0b1153180c *gd79-08-04d2t03.shn
45f42c9165406cdea820242e539d2847 *gd79-08-04d2t01.shn
f7ac0313812f575c4ffa238d2ad8a7ce *gd79-08-04d2t05.shn
55b8f979ed04c10277efd3e938ee27db *gd79-08-04d2t06.shn
52906d0e7b1c6d9553a18e63ce13ee5c *gd79-08-04d3t01.shn
95333a8f18c962e2ba60a4600759da6f *gd79-08-04d3t02.shn
7f17329ab76a7118a3e1ee8dbf9e5db3 *gd79-08-04d3t03.shn
3d26b297be43e9090a826e3935263b32 *gd79-08-04d3t04.shn
fefcf59d278ff616076f08e4ed496309 *gd79-08-04d3t05.shn

shntool:

    length     expanded size   cdr  WAVE problems filename
     7:51.05       83096204    ---   --   ---xx   gd79-08-04d1t01.shn
     2:39.66       28202876    ---   --   ---xx   gd79-08-04d1t02.shn
     4:52.03       51515900    ---   --   ---xx   gd79-08-04d1t03.shn
     8:11.68       86772380    ---   --   ---xx   gd79-08-04d1t04.shn
     6:59.12       73939868    ---   --   ---xx   gd79-08-04d1t05.shn
     8:43.41       92353676    ---   --   ---xx   gd79-08-04d1t06.shn
     5:00.23       52974140    ---   --   ---xx   gd79-08-04d1t07.shn
     7:58.13       84349820    ---   --   ---xx   gd79-08-04d1t08.shn
     6:10.05       65279804    ---   --   ---xx   gd79-08-04d1t09.shn
     5:32.56       58696556    ---   --   ---xx   gd79-08-04d1t10.shn
     6:40.41       70656476    ---   --   ---xx   gd79-08-04d2t01.shn
    10:23.45      110003084    ---   --   ---xx   gd79-08-04d2t02.shn
     8:13.34       87045212    ---   --   ---xx   gd79-08-04d2t03.shn
    12:33.38      132918620    ---   --   ---xx   gd79-08-04d2t04.shn
    20:06.14      212771372    ---   --   ---xx   gd79-08-04d2t05.shn
    10:23.48      110010140    ---   --   ---xx   gd79-08-04d2t06.shn
     2:25.23       25632140    ---   --   ---xx   gd79-08-04d3t01.shn
     9:54.34      104861612    ---   --   ---xx   gd79-08-04d3t02.shn
     6:00.57       63638108    ---   --   ---xx   gd79-08-04d3t03.shn
     2:55.32       30945308    ---   --   ---xx   gd79-08-04d3t04.shn
     5:57.63       63123020    ---   --   ---xx   gd79-08-04d3t05.shn
   159:33.46     1688786316 B                     (totals for 21 files, 0.6343 overall compression ratio)
Show Checksums
shn-md5
33ac1c69e43645dd1c0f585763e8e71c *gd79-08-04d1t08.shn
005232b3b68e2021a83c414a44efd1b5 *gd79-08-04d1t02.shn
380f44e85e8753f5d34ef13d0dccc2af *gd79-08-04d1t03.shn
80e148e185b1c1d7d93e7eb6c34d7349 *gd79-08-04d1t04.shn
29cd1f80f13cae17a00855a2de45bcf1 *gd79-08-04d1t05.shn
e378098281b5307bb98ad5925ce9c06b *gd79-08-04d1t06.shn
90675b531280365333b520950ac480c5 *gd79-08-04d1t07.shn
5f9914155a1d78a23b3b6a8058e9af3f *gd79-08-04d1t01.shn
bc18ad6cdc79d6573e59a0932ae65bb6 *gd79-08-04d1t09.shn
3fcd827b64e1f5920edca6937a6d7416 *gd79-08-04d1t10.shn
313371cc769009bec7d8c15ac193deec *gd79-08-04d2t04.shn
c58fc9aa35f597c8f3343de8c36e63a7 *gd79-08-04d2t02.shn
d9bf8d646f4d626e3d305b0b1153180c *gd79-08-04d2t03.shn
45f42c9165406cdea820242e539d2847 *gd79-08-04d2t01.shn
f7ac0313812f575c4ffa238d2ad8a7ce *gd79-08-04d2t05.shn
55b8f979ed04c10277efd3e938ee27db *gd79-08-04d2t06.shn
52906d0e7b1c6d9553a18e63ce13ee5c *gd79-08-04d3t01.shn
95333a8f18c962e2ba60a4600759da6f *gd79-08-04d3t02.shn
7f17329ab76a7118a3e1ee8dbf9e5db3 *gd79-08-04d3t03.shn
3d26b297be43e9090a826e3935263b32 *gd79-08-04d3t04.shn
fefcf59d278ff616076f08e4ed496309 *gd79-08-04d3t05.shn
st5
dbd4a7b6c0e47870abc0700ac5937997 [shntool] gd79-08-04d1t01.shn
46487778756532145bb684bc73826294 [shntool] gd79-08-04d1t02.shn
b1e078abf1f9baead125dc94f0752a40 [shntool] gd79-08-04d1t03.shn
fe4379706d03ef98419c9262e6d618c6 [shntool] gd79-08-04d1t04.shn
c239457a19557e9a6a4bcd55dca037da [shntool] gd79-08-04d1t05.shn
1dd29b61a8d6f580eb8f5ca1d5fc8c3f [shntool] gd79-08-04d1t06.shn
519b33ab0a5f5b06450a321622296081 [shntool] gd79-08-04d1t07.shn
9cf71b153e4755232758b5bd7e6b6915 [shntool] gd79-08-04d1t08.shn
f605b1c49ab78b87106ad1c6c53ed36b [shntool] gd79-08-04d1t09.shn
61e3c9b6f2e95cebed23837f3da8a0cd [shntool] gd79-08-04d1t10.shn
c21f2dd54b6a244c2a5516dc0f5a95f0 [shntool] gd79-08-04d2t01.shn
0eedc2c90facac5424f0a709a177cf2b [shntool] gd79-08-04d2t02.shn
6cc89a2dcd5f83e5fecd4435687442fc [shntool] gd79-08-04d2t03.shn
15f454cc3de2027a9e253d171683fc72 [shntool] gd79-08-04d2t04.shn
ef2e887276aaae8bc27127dd39845f3f [shntool] gd79-08-04d2t05.shn
f1c8b866992489434821733392d52fde [shntool] gd79-08-04d2t06.shn
a4d5c9d674b7fd922c8fdd766fc59863 [shntool] gd79-08-04d3t01.shn
02095dec390b886a55955c45878790c3 [shntool] gd79-08-04d3t02.shn
4324b38fa5956248f2bcb260d420f94f [shntool] gd79-08-04d3t03.shn
118b820ebb81c5beab76fff7c92b121a [shntool] gd79-08-04d3t04.shn
f99921e87e0c01331baf22a2a0b21832 [shntool] gd79-08-04d3t05.shn

Comments
Add Comment
Other Sources (comments)
SBD>MC>C>DAT>CDR; Missing... (0) flac16; Recorded by... (1)
Date User Comment