Browse Collections Artists Sources   Search Dates

Add Show    List Management    Help


Grateful Dead 04/26/83
The Spectrum, Philadelphia, PA
Comments Add Comment    Source Collectors    Add to Collection    Add to Want List    History
Source # 34395 Other Sources
Entered by Matt Vernon
Checksums ffp , orig-flac-replaygain-md5 , flac-md5
Disc Counts 2 / 3
Media Size
Date Circulated
Date Added
04/24/2006
04/29/2006
Source Summary flac16; Seamless fix of shn id 2606 - SBDMC>Cass>DAT>CDR>EAC>SHN. Note Added 11/9/08: Reflac version w/o replay gain added. See info file for details 
  Archive
Source Information - Download Text | Download Zip
GRATEFUL DEAD
4-26-83
The Spectrum
Philadelphia, PA
------------------------------------------------------------------------
Fix of shnid 2606

I made the transition between CDs 2 and 3 seamless.  Shntool was used
to fix and verify sector boundaries.  Many thanks to Mike Parillo for
providing the overlap between the two CDs - not very long, but since
there were no fades it was all I needed.  I also put all of drums onto
one track and converted the nonseekable shns to flac.

Bill Tetzeli ([email protected])
4/6/2006
------------------------------------------------------------------------
When this source was first circulated, the flac files contained
REPLAYGAIN tags. The wav files compressed inside the flac files are
fine, but if you listen to the flac files themselves using a player
like WinAMP, these tags cause all the tracks to be played at the same
volume. That's not good for concerts where some tracks are supposed to
be louder than others.

There's a new version of this source available. It has exactly the
same wav files; it's just the flac wrapper that's different, the
wrapper doesn't have REPLAYGAIN set anymore. The new version has the
same ffp file (since the wav's are the same), but a new md5 file
(since the flac files are different). The md5 file for the old source
is called "orig-flac-replaygain-md5"; the md5 file for the good new
source is called "flac-md5". If you have a source for this that
matches the ffp, you can create the new source by unflac'ing the old
source and then recompressing at flac level 8 using the flac command
line tool or the flac frontend.

From now on, only the new version of the source should be circulated.

SteveSw - Nov, 2008
------------------------------------------------------------------------

SBDMC>Cass>DAT>CDR>EAC>SHN

DISC ONE ( Set I):
Shakedown Street
Minglewood Blues
They Love Each Other
Me & My Uncle  >
Mexicali Blues
Maybe You Know
West L.A. Fade Away
Brother Esau
It Must Have Been the Roses

DISC TWO (Set 1 cont.)
Let it Grow

Set II:

Help on the Way > Slipknot >
Franklin's Tower >
Man Smart, Woman Smarter >
Drums  >

DISC THREE (Set 2 cont.)
Space  >
Truckin' >
Morning Dew  >
Throwing Stones  >
Not Fade Away

Encore:

U.S. Blues

Uploaded to shakedown.etree.org
by Mike Parrillo ([email protected])
uploaded to abgd 03/11/01 by breaker


==========

    length     expanded size    cdr  WAVE problems  fmt   ratio  filename
    13:49.60      146376764 B   ---   --   ---xx   flac  0.6501  gd83-04-26d1t01.flac
     8:42.41       92177276 B   ---   --   ---xx   flac  0.6339  gd83-04-26d1t02.flac
     8:13.61       87108716 B   ---   --   ---xx   flac  0.6244  gd83-04-26d1t03.flac
     3:25.62       36307868 B   ---   --   ---xx   flac  0.6241  gd83-04-26d1t04.flac
     5:23.43       57078380 B   ---   --   ---xx   flac  0.6378  gd83-04-26d1t05.flac
     5:05.02       53806748 B   ---   --   ---xx   flac  0.6326  gd83-04-26d1t06.flac
     7:40.58       81280460 B   ---   --   ---xx   flac  0.6276  gd83-04-26d1t07.flac
     5:12.49       55152092 B   ---   --   ---xx   flac  0.6184  gd83-04-26d1t08.flac
     5:35.38       59183420 B   ---   --   ---xx   flac  0.6187  gd83-04-26d1t09.flac
    12:27.08      131789660 B   ---   --   ---xx   flac  0.6579  gd83-04-26d2t01.flac
     8:32.37       90403868 B   ---   --   ---xx   flac  0.6272  gd83-04-26d2t02.flac
     9:30.13      100578620 B   ---   --   ---xx   flac  0.6615  gd83-04-26d2t03.flac
     7:11.34       76108412 B   ---   --   ---xx   flac  0.6614  gd83-04-26d2t04.flac
    11:02.08      116795660 B   ---   --   ---xx   flac  0.5709  gd83-04-26d2t05.flac
    12:25.06      131432156 B   ---   --   ---xx   flac  0.5498  gd83-04-26d3t01.flac
     7:30.26       79441196 B   ---   --   ---xx   flac  0.6475  gd83-04-26d3t02.flac
    10:31.58      111444860 B   ---   --   ---xx   flac  0.6137  gd83-04-26d3t03.flac
     9:37.57      101916908 B   ---   --   ---xx   flac  0.6241  gd83-04-26d3t04.flac
     8:58.26       94964396 B   ---   --   ---xx   flac  0.6125  gd83-04-26d3t05.flac
     4:53.30       51755804 B   ---   --   ---xx   flac  0.6434  gd83-04-26d3t06.flac
   165:49.42     1755103264 B                            0.6250  (20 files)
Show Checksums
ffp
gd83-04-26d1t01.flac:9e4a14209c2df96a1fbdf568a7bbff44
gd83-04-26d1t02.flac:4032c47be005cb5f42564204a99f7bf8
gd83-04-26d1t03.flac:0d4d745e6ecd934dc7ca6b0d2e0ab3dc
gd83-04-26d1t04.flac:1643b400c12fd2dd1bf985017bf79973
gd83-04-26d1t05.flac:0fdba8c4b9355c7e3c3850ccf457abbe
gd83-04-26d1t06.flac:86abeb625483854e78487a9ca0cbe5f2
gd83-04-26d1t07.flac:4769f398d553c7fcbce6edb20af7a688
gd83-04-26d1t08.flac:248da0978d143318172e5f0e3c1b900b
gd83-04-26d1t09.flac:65a629ffd3c5b2b509d0d134d6868b12
gd83-04-26d2t01.flac:d78ac0ce4997cabfbb6c6a24dadd529c
gd83-04-26d2t02.flac:6f42a014aab9f412151382fba58c40ce
gd83-04-26d2t03.flac:a431fa6098045faf43538caa17b5a8e1
gd83-04-26d2t04.flac:e479c8732c490d8bb3eff62628810673
gd83-04-26d2t05.flac:75d03f694462b416af02c8b7607e3780
gd83-04-26d3t01.flac:0bad219f6e49243315cd1814dcb0b76e
gd83-04-26d3t02.flac:c1b0c02379f7ae37b1eb0b78c6e06b82
gd83-04-26d3t03.flac:04ef3c8c61df777910aee498476a45f8
gd83-04-26d3t04.flac:91c962ea7aa5d1f83d0f219c48ca55ca
gd83-04-26d3t05.flac:2ec884cd58ab0f99c00c78b616e431e5
gd83-04-26d3t06.flac:e9579fcc31ad5a1886d9c072939d35eb
orig-flac-replaygain-md5
f418aae3e48434d140e3369f7911b467 *gd83-04-26d1t01.flac
ff7588f9893db9da926ce78b4f46c9d8 *gd83-04-26d1t02.flac
04c51da7adfc15793af74ae6d3a2d20f *gd83-04-26d1t03.flac
8b9cd2412cf7ec2ec6230661ef230e71 *gd83-04-26d1t04.flac
ea90f1174a1838440302bbe82d353e58 *gd83-04-26d1t05.flac
cdc0fb723bd76bb0bed98728d8663c8b *gd83-04-26d1t06.flac
8fff5a98b0881e799e476535fab5c644 *gd83-04-26d1t07.flac
386e1289d9cd531c209af1bcf93a0496 *gd83-04-26d1t08.flac
e9ac08217456294a471f347515e46cbf *gd83-04-26d1t09.flac
38f526eb09c5e8513a2c5dae0aa6c40d *gd83-04-26d2t01.flac
2caf9e05fc13cc0da4e70dd885a5e49e *gd83-04-26d2t02.flac
24c4c75447a0dc95a415b5960628eee5 *gd83-04-26d2t03.flac
b04153026d5d203c51285acef70720aa *gd83-04-26d2t04.flac
10a4327aa7959cd93411ffbe10c105ca *gd83-04-26d2t05.flac
9de08ddc5f6998385ed688e500ff274c *gd83-04-26d3t01.flac
80112a84c9acf9bf717bfce283110c40 *gd83-04-26d3t02.flac
f647da06891fb7a59c08bcdd22f1fe2a *gd83-04-26d3t03.flac
4ac0b489c2f32cacc6f466e1185e1d50 *gd83-04-26d3t04.flac
83787e0bca040d309127f1999df4f29c *gd83-04-26d3t05.flac
073d28c1ce49486cec25869d4b1c93dd *gd83-04-26d3t06.flac
flac-md5
ef7bd8eb73f1139d145f71bd3e08117e *gd83-04-26d1t01.flac
24c1f6446fa13e4e33e7307c479ae128 *gd83-04-26d1t02.flac
a2971f768a1468761b939981e2d25a90 *gd83-04-26d1t03.flac
8ddfcc614f291c619d48ec31d56de33e *gd83-04-26d1t04.flac
ef4616fd3285c7553202071d70eb8ac8 *gd83-04-26d1t05.flac
ddfcbb7a1268461553c5d930ce3ffb46 *gd83-04-26d1t06.flac
a41c40480197a3f47e259eaa42d5e36c *gd83-04-26d1t07.flac
12cd4a6613e6ade38d23866fbd91f444 *gd83-04-26d1t08.flac
f1ca84a6963bdc3b4969e846bcdffb94 *gd83-04-26d1t09.flac
7798d83fea85dee8d6a2bd4f1a207648 *gd83-04-26d2t01.flac
7141bcba332b9770718dd485b1d363ee *gd83-04-26d2t02.flac
016867b1f271a24ce90d6d48171f7b17 *gd83-04-26d2t03.flac
016dcfbfb01c24ffe3015621b78fec28 *gd83-04-26d2t04.flac
2727c89dc3c4754b5b29a165d4db76ed *gd83-04-26d2t05.flac
fc64bcfef577b2da87335974b9737e7e *gd83-04-26d3t01.flac
40a12178722b1210391234d206e273f8 *gd83-04-26d3t02.flac
dd8ab689d59ddda99de9f73b9ab8152a *gd83-04-26d3t03.flac
2a7bdd2633aa8b2d36592cab0f8b3fed *gd83-04-26d3t04.flac
1cc743bb6677cb516c564ab0c86c74c9 *gd83-04-26d3t05.flac
2a135bc92e5c5ad1a1d09e79b8012e07 *gd83-04-26d3t06.flac

Comments
Add Comment
Other Sources (comments)
SBDMC> Cass> DAT> CDR> EAC>... (1) set2; Sennheiser shotguns >... (0) flac16; Unknown mics... (0) flac16; Recording... (0) flac16; Source: 2... (0) flac16; 2 Source... (0) flac16/48kHz; Master... (0) flac16; MAC; (FOB)... (0) flac24; MAC; (FOB)... (0) flac24; Master... (0) flac16; Master... (0) flac16/44.1 Master... (0) flac24/48 Master... (0)
Date User Comment
11/09/2006 btet This was inadvertently FLAC encoded with replaygain. If you're playing the FLACs in Winamp you should reFLAC the files without replaygain option. If you're burning extracted .wavs to CD, these are unaffected and no reFLACing is necessary. I apologize for the error.