Browse Collections Artists Sources   Search Dates

Add Show    List Management    Help


Grateful Dead 05/03/87
Frost Amphitheatre, Palo Alto, CA
Comments Add Comment    Source Collectors    Add to Collection    Add to Want List    History
Source # 34396 Other Sources
Entered by Matt Vernon
Checksums ffp , orig-flac-replaygain-md5 , flac-md5
Disc Counts 2 / 3
Media Size
Date Circulated
Date Added
04/29/2006
04/29/2006
Source Summary flac16; Seamless fix of shn id 1193 - 65% DSBD PRE-FM SBD/35% FOB Schoeps CMC32S. Note Added 11/9/08: Reflac version w/o replay gain added. See info file for details 
  Archive
Source Information - Download Text | Download Zip
Grateful Dead
5/3/87
Frost Amphitheatre
Palo Alto, CA
-----------------------------------------------------------------------------------------------
Fix of shnid 1193.  

This is actually a refix.  My first one was probably okay, but I wanted something more accurate in making the transition between CDs 2 and 3 seamless, something that was difficult because of the fades in the overlapping sections.  Unfortunately, what I discovered was there was something qualitatively different between the end of CD 2 and the beginning of CD 3, so no matter how exactly I matched the volume at the splice points you could easily hear where the splice was.  I finally had to settle for approximately matching the levels at the overlap, synching the overlap precisely and doing a cross fade in CE Pro (around 4 sec. into Space).  It's not perfect, but it's the best I can do and it sounds pretty good.  I'm sure someone else can do better.

I converted the SHNs to FLAC and merged the drums and space into one track each (they had been three tracks each).

Bill Tetzeli, [email protected]
5:20 AM 4/29/2006
-----------------------------------------------------------------------------------------------
DSBD/DAUD MIX

65% DSBD PRE-FM SBD --> PCM --> DAT --> CDR
35% FOB Schoeps CMC32S --> Grace P.S. --> Sony PCM601 ES --> DAT --> CDR

mixed by Sean Weber, converted to shn by Bill Gardner

Disc 1
Set 1
1. Set Intro
2. Touch of Grey
3. Promised Land
4. Row Jimmy
5. Itsy Bitsy Spider Tuning
6. Little Bunny Foo Foo Tuning
7. Peggy-O
6. Never Trust A Woman
7. Cassidy
8. Don't Ease Me In

Disc 2
Set 2
1. Set Intro
2. Iko
3. Feel Like a Stranger
4. Ship of Fools
5. Estimated Prophet -->
6. Drums

Disc 3

1. Space
2. The Other One -->
3. Black Peter -->
4. Throwing Stones -->
5. Not Fade Away

Encore:
6. Set intro
7. The Mighty Quinn

shntool output:

    length     expanded size   cdr  WAVE problems filename
     2:20.34       24776012    ---   --   ---xx   gd87-05-03d1t01.flac
     6:24.21       67787036    ---   --   ---xx   gd87-05-03d1t02.flac
     6:14.49       66088892    ---   --   ---xx   gd87-05-03d1t03.flac
    13:02.30      138015404    ---   --   ---xx   gd87-05-03d1t04.flac
     2:26.03       25761500    ---   --   ---xx   gd87-05-03d1t05.flac
     1:15.14       13262972    ---   --   ---xx   gd87-05-03d1t06.flac
  
==========

    length     expanded size    cdr  WAVE problems  fmt   ratio  filename
     2:20.34       24776012 B   ---   --   ---xx   flac  0.4535  gd87-05-03d1t01.flac
     6:24.21       67787036 B   ---   --   ---xx   flac  0.6183  gd87-05-03d1t02.flac
     6:14.49       66088892 B   ---   --   ---xx   flac  0.6082  gd87-05-03d1t03.flac
    13:02.30      138015404 B   ---   --   ---xx   flac  0.5978  gd87-05-03d1t04.flac
     2:26.03       25761500 B   ---   --   ---xx   flac  0.5017  gd87-05-03d1t05.flac
     1:15.14       13262972 B   ---   --   ---xx   flac  0.5867  gd87-05-03d1t06.flac
     8:54.03       94204700 B   ---   --   ---xx   flac  0.5941  gd87-05-03d1t07.flac
     6:27.30       68337404 B   ---   --   ---xx   flac  0.6302  gd87-05-03d1t08.flac
     6:24.44       67841132 B   ---   --   ---xx   flac  0.6531  gd87-05-03d1t09.flac
     4:03.71       43032236 B   ---   --   ---xx   flac  0.6344  gd87-05-03d1t10.flac
     1:16.60       13547564 B   ---   --   ---xx   flac  0.4662  gd87-05-03d2t01.flac
     7:36.23       80492540 B   ---   --   ---xx   flac  0.6503  gd87-05-03d2t02.flac
     8:34.11       90695516 B   ---   --   ---xx   flac  0.6416  gd87-05-03d2t03.flac
     9:12.47       97483388 B   ---   --   ---xx   flac  0.5507  gd87-05-03d2t04.flac
    11:20.10      119975564 B   ---   --   ---xx   flac  0.6283  gd87-05-03d2t05.flac
    11:33.30      122315804 B   ---   --   ---xx   flac  0.4935  gd87-05-03d2t06.flac
     8:55.40       94468124 B   ---   --   ---xx   flac  0.4809  gd87-05-03d3t01.flac
     4:46.08       50469260 B   ---   --   ---xx   flac  0.6356  gd87-05-03d3t02.flac
     9:13.22       97600988 B   ---   --   ---xx   flac  0.5874  gd87-05-03d3t03.flac
     8:30.24       90020492 B   ---   --   ---xx   flac  0.6548  gd87-05-03d3t04.flac
    11:55.05      126137804 B   ---   --   ---xx   flac  0.6036  gd87-05-03d3t05.flac
     0:44.04        7771052 B   ---   --   ---xx   flac  0.5805  gd87-05-03d3t06.flac
     4:54.60       52002764 B   ---   --   ---xx   flac  0.6423  gd87-05-03d3t07.flac
   156:05.43     1652088148 B                            0.5940  (23 files)
Show Checksums
ffp
gd87-05-03d1t01.flac:10446d03ba82b28759469be5036f1c01
gd87-05-03d1t02.flac:d35ec3c83470d40803b05c8d5a3c1550
gd87-05-03d1t03.flac:21b62b6129d8c7f16afd5b9e71958995
gd87-05-03d1t04.flac:731e566192244edd7e279a0512f70c11
gd87-05-03d1t05.flac:0a2d944b09f39fe40e66b5bde89654ca
gd87-05-03d1t06.flac:5ceee4bd83deee85d1c9988c8fcca48c
gd87-05-03d1t07.flac:d6d4c5a062f635aa9e733f3bdb02a4b6
gd87-05-03d1t08.flac:49b9d2eb1bd0604aee5edccd543ee734
gd87-05-03d1t09.flac:bc22f80a67e815e01b3e5bf7cc9cc2c4
gd87-05-03d1t10.flac:ce21eb25ed0bd89c70e3f4c27ca1ed0e
gd87-05-03d2t01.flac:767d9e149b5ede4413a94d12a3c86faf
gd87-05-03d2t02.flac:f1bc04f58a437eac4051fc02c231f148
gd87-05-03d2t03.flac:7ffe60098e825fff3c0055b731edd7d9
gd87-05-03d2t04.flac:83a7b7deb417cc5e6b0d908ea2524284
gd87-05-03d2t05.flac:8b385d49058d3de0b9256da064bb5f93
gd87-05-03d2t06.flac:7e3cd9e15e96932666fb1afa04e2d5ef
gd87-05-03d3t01.flac:ad285b5cd4170dd25bc216b0b189b793
gd87-05-03d3t02.flac:046765b077dcace2936826f7498b5c6a
gd87-05-03d3t03.flac:9e9d3a5401e44179228a11289f45a434
gd87-05-03d3t04.flac:159ae9a0cf987954ef55bda4c422b9b4
gd87-05-03d3t05.flac:eca27af78ca74e2efe458782f69c45ec
gd87-05-03d3t06.flac:1094eddf5e7a8ddcf4ef44b7922e1ce8
gd87-05-03d3t07.flac:e7ae8cfc6c4823f5e9ec81b285c4238b
orig-flac-replaygain-md5
e1faf2dadc27aac771bbb6d46201fa14 *gd87-05-03d1t01.flac
2f5fcf71c9ce578348f703353b00f669 *gd87-05-03d1t02.flac
ca7dcce81c316f1c6a4f6f4cbf849d6e *gd87-05-03d1t03.flac
04ce8727c76401d2181b14efc5714076 *gd87-05-03d1t04.flac
9cb35635155e047d0878b5820ae7a684 *gd87-05-03d1t05.flac
ebce08e4a6f6ff79727b181728a97cfb *gd87-05-03d1t06.flac
533b9b4c4d733c2f5e17542953fd7aa1 *gd87-05-03d1t07.flac
794aca5c7a24db32d4747e4239b1efd0 *gd87-05-03d1t08.flac
376cd301f53237ce7b039717657f7c57 *gd87-05-03d1t09.flac
7b8994a00cf2ceefce7327e9719603b8 *gd87-05-03d1t10.flac
2ba65cf570ae8a4baa745077422fbb44 *gd87-05-03d2t01.flac
d77c721390c525c7a4559dd0f80c6c6d *gd87-05-03d2t02.flac
3007026760cfd3844406e199a869d756 *gd87-05-03d2t03.flac
cf9fbdcd1d8576d6cb4536b2ce71414a *gd87-05-03d2t04.flac
1713ab4bfbf4c81dc33d0d80a37f9f92 *gd87-05-03d2t05.flac
76cfc03964cafa622fbc12baa44b2c3e *gd87-05-03d2t06.flac
d3b2770cb40b11f85ab03ba2752ae538 *gd87-05-03d3t01.flac
755f4bed4bad35f7e7d55dcec2f499ff *gd87-05-03d3t02.flac
903cd79c265418968ab0abb7117e3541 *gd87-05-03d3t03.flac
9200a52d1aeaa3a3639bcff90b0f0807 *gd87-05-03d3t04.flac
986777c8000ce83605bbd2808a39bd50 *gd87-05-03d3t05.flac
95a9414407434f880e17c6a98aaa0d05 *gd87-05-03d3t06.flac
b8b556b68dda37c7a27a934a7dbbb9ce *gd87-05-03d3t07.flac
flac-md5
66bd45491d4fe321db1742ede495dd1f *gd87-05-03d1t01.flac
72c385a70893d6f43ded7a1dbf55cf0f *gd87-05-03d1t02.flac
09467ad2b334e392b2a819c68c1fcd98 *gd87-05-03d1t03.flac
5c3b5d22cdfb79410d2909285ee3c489 *gd87-05-03d1t04.flac
13b6ac0ae36e0fa7437648e73a328c6c *gd87-05-03d1t05.flac
6b3a5413bb81357057651bf4ad4aea68 *gd87-05-03d1t06.flac
b0d218b3dc54bdc9c66b2c01147d2e5f *gd87-05-03d1t07.flac
603bb891dd21c606995bf00d4c496d3c *gd87-05-03d1t08.flac
e55abef4113f73eb65f1dc2a85873832 *gd87-05-03d1t09.flac
8b408c44107e2e6cc4a87e1f6776d71d *gd87-05-03d1t10.flac
6c9e0b6aa6a0be1a0ae54884c2ce9e95 *gd87-05-03d2t01.flac
ff7397bf07b3f4da87fd6a9ceb23cc99 *gd87-05-03d2t02.flac
3f06efe489bfeae88f4d5d4a38eac0d6 *gd87-05-03d2t03.flac
a0e047ac5df295d46cf94a7335419dc5 *gd87-05-03d2t04.flac
90f2c6246b68d3ab793aff45d66a0519 *gd87-05-03d2t05.flac
bfa2687122bc2cf4ca352f211c655d4d *gd87-05-03d2t06.flac
d2e21fbffc76ff541b8f9af23128ed01 *gd87-05-03d3t01.flac
8f9717bf13a49d09edbb5b1e39e39e52 *gd87-05-03d3t02.flac
752c02643ae4106607ba3c5b6af862f5 *gd87-05-03d3t03.flac
ce6a92868ee1679c17ccadc4b53eca40 *gd87-05-03d3t04.flac
d80b048d6546f1b8c0b127632e78c2d3 *gd87-05-03d3t05.flac
8032f5721efbb685ee123a5c565ff32b *gd87-05-03d3t06.flac
3eca4e4d9d4271d6ee8084b5687328aa *gd87-05-03d3t07.flac

Comments
Add Comment
Other Sources (comments)
DSBD/DAUD MIX: 65% DSBD... (9) Unknown SBD patched with... (1) SBD > MC > DAT > CD > EAC >... (0) flac16; Recording... (0) flac16; FOB 10th Row... (0) flac16; Digital... (1)
Date User Comment
08/01/2006 btet This source is deprecated in favor of the Hinko source (shnid 18848). I had to do a crossfade to achieve seamlessness, and the difference in quality before and after the crossfade is audible. The Hinko source doesn't have this problem; it's also seamless and a very good sounding straight SBD. I chucked my edit (this source) after downloading the Hinko seed.
11/09/2006 btet This was inadvertently FLAC encoded with replaygain. If you're playing the FLACs in Winamp you should reFLAC the files without the replaygain option. If you're burning extracted .wavs to CD, these are unaffected and no reFLACing is necessary. I apologize for the error.