Browse Collections Artists Sources   Search Dates

Add Show    List Management    Help


Grateful Dead 12/16/94
Sports Arena, Los Angeles, CA
Comments Add Comment    Source Collectors    Add to Collection    Add to Want List    History
Source # 34551 Other Sources
Entered by Matt Vernon
Checksums flac-md5 , ffp
Disc Counts 1 / 2
Media Size
Date Circulated
Date Added
05/04/2006
05/04/2006
Source Summary flac16; Set 2 DSBD > DAT > [?] > CDR > EAC > CEPro > CDWAV > FLAC (level 8) via Andy Lemieux. Encoded by Matt Vernon 
  Archive
Source Information - Download Text | Download Zip
Grateful Dead
Los Angeles Sports Arena
Los Angeles, CA  
Date 12/16/94 - Friday

DSBD > DAT > [?] > CDR > EAC > CEPro > CDWAV > FLAC (level 8)

Thanks to Andy Lemieux for the disks
EAC etc. by Matt Vernon May 4, 2006

Set Two Only

Disk 2
01. Eyes Of The World ;
02. Samba In The Rain ;
03. Estimated Prophet >
04. He's Gone >
05. Drums >

Disk 3
01. Space >
02. The Other One >
03. Wharf Rat >
04. Good Lovin' %
Encore
05. Lucy In The Sky With Diamonds

notes
- with Branford Marsalis  
- disk 2 and 3 are continuous
- no known flaws


    length     expanded size   cdr  WAVE problems filename
    20:16.32      214577708    ---   --   ---xx   gd94-12-16d2t01.flac
     9:04.35       96043964    ---   --   ---xx   gd94-12-16d2t02.flac
    18:14.25      193040444    ---   --   ---xx   gd94-12-16d2t03.flac
    15:23.00      162817244    ---   --   ---xx   gd94-12-16d2t04.flac
    10:53.14      115222172    ---   --   ---xx   gd94-12-16d2t05.flac
     9:45.24      103250492    ---   --   ---xx   gd94-12-16d3t01.flac
     8:12.73       86960540    ---   --   ---xx   gd94-12-16d3t02.flac
    10:09.35      107509964    ---   --   ---xx   gd94-12-16d3t03.flac
     8:16.35       87576764    ---   --   ---xx   gd94-12-16d3t04.flac
     4:10.51       44219996    ---   --   ---xx   gd94-12-16d3t05.flac
   114:26.24     1211219288 B                     (totals for 10 files, 0.5195 overall compression ratio)
Show Checksums
flac-md5
c3741f2ad60d9eeea4be57363d01f0eb *gd94-12-16d2t01.flac
f9286ecf98bca53717ef122dafb4f46f *gd94-12-16d2t02.flac
dcfdf4e85ad354664fd97367a40438d7 *gd94-12-16d2t03.flac
95d7e4a92dbcd3a50bbc8bb35d7911f8 *gd94-12-16d2t04.flac
d669c4a4270dedb7948363a4a1eeef81 *gd94-12-16d2t05.flac
363608c62980d18bd65ed25e60bd5931 *gd94-12-16d3t01.flac
4454b0f481b0ea71ea5daebef4923ac0 *gd94-12-16d3t02.flac
e193958134dba15d8a6c6531996268a9 *gd94-12-16d3t03.flac
5b7599dd61c16f3c436c9ec1165f23f0 *gd94-12-16d3t04.flac
9d6ab63d2cefbd5d0cda7e13895912ab *gd94-12-16d3t05.flac
ffp
gd94-12-16d2t01.flac:b13d60f06c6cafef109564a69ad0a0c1
gd94-12-16d2t02.flac:31f42974565f9a260bf30c2c4576c29f
gd94-12-16d2t03.flac:eb684c92ccf8973b5c373a67c8947e35
gd94-12-16d2t04.flac:1885277a97afeacf972931beb9f971d9
gd94-12-16d2t05.flac:fae8f6382b1fff18fcb68cf843e6a2f4
gd94-12-16d3t01.flac:f2c15f730ca1039eb98fe38086c85c91
gd94-12-16d3t02.flac:bc2f2a45213795a728f25b421af81dd4
gd94-12-16d3t03.flac:e7af0232557dad5aeac9dda261e2f40a
gd94-12-16d3t04.flac:00c8c7427f720d3d06634f0a0756f87e
gd94-12-16d3t05.flac:78f0d28805834a27a4ceb3c3d80be574

Comments
Add Comment
Other Sources (comments)
AUD(Nak 300 Shotguns)>Aiwa... (0) flac16; matrix of... (0) flac16/48kHz; Taper... (0) flac16/44.1 Source... (0)
Date User Comment