Browse Collections Artists Sources   Search Dates

Add Show    List Management    Help


Grateful Dead 02/10/89
Great Western LA Forum, Inglewood, CA
Comments Add Comment    Source Collectors    Add to Collection    Add to Want List    History
Source # 34569 Other Sources
Entered by Matt Vernon
Checksums ffp , orig-flac-replaygain-md5 , flac-md5
Disc Counts 2 / 3
Media Size
Date Circulated
Date Added
05/30/2006
05/06/2006
Source Summary flac16; Seamless fix of shn id 13060 - Master Cassette SBD>DAT(Fostex D-10 playback)>CD-R (hhb800 standalone)>EAC 0.9>SHN. Note Added 11/9/08: Reflac version w/o replay gain added. See info file for details 
  Archive
Source Information - Download Text | Download Zip
Grateful Dead
2/10/1989
Great Western Forum
Inglewood, California
------------------------------------------------------------------------
Fix of shnid 13060

I made the transition between CDs 2 and 3 seamless and fixed the
resulting SBEs using shntool.  The nonseekable shns were converted to
FLAC.

Bill Tetzeli ([email protected])
4/8/2006
------------------------------------------------------------------------
When this source was first circulated, the flac files contained
REPLAYGAIN tags. The wav files compressed inside the flac files are
fine, but if you listen to the flac files themselves using a player
like WinAMP, these tags cause all the tracks to be played at the same
volume. That's not good for concerts where some tracks are supposed to
be louder than others.

There's a new version of this source available. It has exactly the
same wav files; it's just the flac wrapper that's different, the
wrapper doesn't have REPLAYGAIN set anymore. The new version has the
same ffp file (since the wav's are the same), but a new md5 file
(since the flac files are different). The md5 file for the old source
is called "orig-flac-replaygain-md5"; the md5 file for the good new
source is called "flac-md5". If you have a source for this that
matches the ffp, you can create the new source by unflac'ing the old
source and then recompressing at flac level 8 using the flac command
line tool or the flac frontend.

From now on, only the new version of the source should be circulated.

SteveSw - Nov, 2008
------------------------------------------------------------------------

Source: Master Cassette SBD>DAT(Fostex D-10 playback)>CD-R (hhb800 standalone)>EAC 0.9>SHN (via MKWACT)


CD 1
Set 1
Stranger >
Franklin's Tower
Walkin' Blues
To Lay Me Down
Masterpiece
FOTD
Let It Grow

CD 2
Set 2
Tuning
Just a Little Light (without Weir - due to Guitar Problems)
Truckin' >
Crazy Fingers >
Playin>
Drums >
Space

CD 3
Set 2 continued
Wheel >
Gimme Some Lovin' >
Wharf Rat >
Sugar Magnolia
e: Baby Blue

Editorial Comments:

This recording has a somewhat unique stereo mix.  
The mix is more muddy than other winter/spring '89 recordings due to more audience blended into the recording than the
usual matrix recordings from that period. Still this is a fine listen.  

DAT Transfer to CD and SHN generation by JR Fishman, NY, NY
[email protected]
Send all inquiries to above e-mail
upped to the crypt Aug '01 by Steve Barbella

==========

    length     expanded size    cdr  WAVE problems  fmt   ratio  filename
     2:19.37       24606668 B   ---   --   ---xx   flac  0.4672  gd89-02-10d1t01.flac
     7:34.13       80116220 B   ---   --   ---xx   flac  0.5851  gd89-02-10d1t02.flac
     9:32.29      100969052 B   ---   --   ---xx   flac  0.5759  gd89-02-10d1t03.flac
     7:20.11       77641916 B   ---   --   ---xx   flac  0.5490  gd89-02-10d1t04.flac
     9:56.01      105136796 B   ---   --   ---xx   flac  0.5136  gd89-02-10d1t05.flac
     5:54.06       62459756 B   ---   --   ---xx   flac  0.5476  gd89-02-10d1t06.flac
     8:11.58       86748860 B   ---   --   ---xx   flac  0.5435  gd89-02-10d1t07.flac
    12:15.51      129773996 B   ---   --   ---xx   flac  0.5461  gd89-02-10d1t08.flac
     2:37.67       27852428 B   ---   --   ---xx   flac  0.4421  gd89-02-10d2t01.flac
     8:32.61       90460316 B   ---   --   ---xx   flac  0.5248  gd89-02-10d2t02.flac
     8:00.01       84674396 B   ---   --   ---xx   flac  0.5851  gd89-02-10d2t03.flac
     8:24.21       88955036 B   ---   --   ---xx   flac  0.5262  gd89-02-10d2t04.flac
    14:43.42      155860028 B   ---   --   ---xx   flac  0.5295  gd89-02-10d2t05.flac
     6:42.00       70912844 B   ---   --   ---xx   flac  0.4581  gd89-02-10d2t06.flac
     8:07.24       85963292 B   ---   --   ---xx   flac  0.4140  gd89-02-10d2t07.flac
     5:35.41       59190476 B   ---   --   ---xx   flac  0.5285  gd89-02-10d3t01.flac
     4:50.68       51315980 B   ---   --   ---xx   flac  0.5657  gd89-02-10d3t02.flac
    10:18.53      109139900 B   ---   --   ---xx   flac  0.5344  gd89-02-10d3t03.flac
    10:21.14      109577372 B   ---   --   ---xx   flac  0.5448  gd89-02-10d3t04.flac
     8:54.30       94268204 B   ---   --   ---xx   flac  0.4782  gd89-02-10d3t05.flac
   160:12.28     1695623536 B                            0.5281  (20 files)
Show Checksums
ffp
gd89-02-10d1t01.flac:f688cd8c596b1fb7a4bb41eae9d68091
gd89-02-10d1t02.flac:851e10699ce06816fab899ea5ed3c788
gd89-02-10d1t03.flac:a85f6cc577252459dad393a78b0769eb
gd89-02-10d1t04.flac:ae139cf1ec4295776d6c478ffbdcd2bc
gd89-02-10d1t05.flac:68870c35bd66f03e222bc1764baae552
gd89-02-10d1t06.flac:bb386e0ebb5ca2613da9705a55ae26be
gd89-02-10d1t07.flac:65e7d7b0a1817e543d7b6df7c34dd66f
gd89-02-10d1t08.flac:e3a34f6452ec018995cfccbda67f401a
gd89-02-10d2t01.flac:1d03202c570699b086544ba74507f4f2
gd89-02-10d2t02.flac:74e79454ac92cc204570b7f4f9d227d0
gd89-02-10d2t03.flac:589054f11cdfdda238fa921781526f6c
gd89-02-10d2t04.flac:ec03722097a9c3aa50748ab3460d76fd
gd89-02-10d2t05.flac:1a6b686a9a1b7e06a49147107cf47caf
gd89-02-10d2t06.flac:8a3e7698ab5c4b3eb7f2e935d8558fc0
gd89-02-10d2t07.flac:ef0e51446de4547b75189e97611c974b
gd89-02-10d3t01.flac:0879abf90bd226ebaff4793b0ae4780f
gd89-02-10d3t02.flac:2eb11bb732edd302880f9433e7844b5a
gd89-02-10d3t03.flac:39d731995a49da272234cc6f4da0bf76
gd89-02-10d3t04.flac:3559c9e983ad754ec41d02342e745f61
gd89-02-10d3t05.flac:bc978a8384516fad6986afea5dfc13ff
orig-flac-replaygain-md5
607ad4a59808ba68ce222853563cdeeb *gd89-02-10d1t01.flac
45b04611518c2e7c4e81010030fb73dd *gd89-02-10d1t02.flac
f4b37d69869f33f2b31f876354decd39 *gd89-02-10d1t03.flac
0c58780a4f01f9cdfc951a85bed7a6be *gd89-02-10d1t04.flac
c1e3ecd709ce53cc23c6ee209aef7a2b *gd89-02-10d1t05.flac
51b4bf94eb0601c9904de041ef81f264 *gd89-02-10d1t06.flac
1f49f4c6e9cbf289b62ab69b4212825c *gd89-02-10d1t07.flac
98c8e0075517ced66428818f17de49e4 *gd89-02-10d1t08.flac
ec8a43a7bb4007de23034624a8034c79 *gd89-02-10d2t01.flac
1d230cc5788251526101a5a3bb285ff3 *gd89-02-10d2t02.flac
b6332d43d809513e9973f67692a7064c *gd89-02-10d2t03.flac
df4508006003f17b414a70b59e31b947 *gd89-02-10d2t04.flac
5c963dd71898fe9558be866c0e8ad908 *gd89-02-10d2t05.flac
ff9470f9b99d3978c58886259c905872 *gd89-02-10d2t06.flac
6b14201ad2411fd6181ebee17f96b0b8 *gd89-02-10d2t07.flac
8d196cfd91162d0e037cdc8f0672ac01 *gd89-02-10d3t01.flac
dce4e4d7d06dcdb01b08559719ee9a1e *gd89-02-10d3t02.flac
55491eb64d3889952efde63a3ecc0d75 *gd89-02-10d3t03.flac
67a8ad277b4c472ef24d0afb5c77da35 *gd89-02-10d3t04.flac
bec4e8488da3e452fdebcaf698aa4b2a *gd89-02-10d3t05.flac
flac-md5
85c81d04efc41b933cf0301acb1f1600 *gd89-02-10d1t01.flac
3382635e93e4385ea0863537e5c52287 *gd89-02-10d1t02.flac
ae4682119cc9c7390356230a7fa715b5 *gd89-02-10d1t03.flac
e6c18db238fa3fe4cb2d19970f240810 *gd89-02-10d1t04.flac
8cbcf39bf56b3e5fdae2416804f866fe *gd89-02-10d1t05.flac
ceaa4b0a0ac8215182ffeea2712851d7 *gd89-02-10d1t06.flac
e48ba68790253ddf7f211846d2c1c576 *gd89-02-10d1t07.flac
ce16394c235713693dfe0608b8489ade *gd89-02-10d1t08.flac
0d38d7d97ac4abb8ab509ae44d97f343 *gd89-02-10d2t01.flac
28eb82664452d407bb11c6161417ebb0 *gd89-02-10d2t02.flac
401cd5d8708cfa77f91045c29138d297 *gd89-02-10d2t03.flac
2828c01be56b565d6a844c2cf0afc2b0 *gd89-02-10d2t04.flac
e6b2b950a09a14b4e5a8caddd98170df *gd89-02-10d2t05.flac
9240f13e568153b325beb9441c58fd69 *gd89-02-10d2t06.flac
6112741acb814326db2157069c506279 *gd89-02-10d2t07.flac
c2d793bfd558437094f94543d41be5f2 *gd89-02-10d3t01.flac
9f4c889ce9aa7ecea04168e1da80e0ae *gd89-02-10d3t02.flac
6a1a02436c60609ec402b19fbb37c6a0 *gd89-02-10d3t03.flac
1d54f851d4b0bf2965ecb15ed3574341 *gd89-02-10d3t04.flac
3385525aadf70b012f7493d401fc3cb0 *gd89-02-10d3t05.flac

Comments
Add Comment
Other Sources (comments)
Source: Master Cassette... (0) flac24/96; Senn... (1) flac16; Senn MKE2002... (0) flac24/48; Senn... (0) flac16; AT835B's- AT... (0) flac24; Recording... (0) flac16; Recording... (1) flac16; Source Info:... (0) flac16; Recording... (0)
Date User Comment
11/09/2006 btet This was inadvertently FLAC encoded with replaygain. If you're playing the FLACs in Winamp you should reFLAC the files without the replaygain option. If you're burning extracted .wavs to CD, these are unaffected and no reFLACing is necessary. I apologize for the error.