Browse Collections Artists Sources   Search Dates

Add Show    List Management    Help


Grateful Dead 08/18/89
The Greek Theatre - University of California, Berkeley, CA
Comments Add Comment    Source Collectors    Add to Collection    Add to Want List    History
Source # 34570 Other Sources
Entered by dr.unclear
Checksums shn-md5 , st5
Disc Counts 2 / 3
Media Size
Date Circulated
Date Added
05/04/2006
05/06/2006
Source Summary Seamless fix of shn id 4796 - Healy Matrix Digital SBD > DAT > CDR > WAV > SHNv3 
  Archive
Source Information - Download Text | Download Zip
Grateful Dead
08/18/89
Greek Theatre - UC Berkeley
Berkeley, CA
--------------------------------------------------------------------------------------
Fix of shnid 4796

I made the transition between CDs 2 and 3 seamless and cleaned up the resulting SBEs using shntool.  Thanks to Fishman for providing the overlap that made this fix possible.

Bill Tetzeli ([email protected])
4/8/2006
--------------------------------------------------------------------------------------
lineage:  Healy Matrix Digital SBD > DAT > CDR > WAV > SHNv3
source:  DAT > CDR transfer via D-10 > HHb800 via fishman.  DAE via neo_levo:  EAC (high, secure, offset corrected, with repeated extractions yielding matching wav md5's), tracked using CDWAVE (boundaries confirmed w/ shntool) > mkwact > SHNv3.  Single generation of DAE.

Disc 1 - Set 1
01 Cold Rain & Snow
02 New Minglewood Blues
03 Row Jimmy
04 When I Paint My Masterpiece
05 Built To Last
06 Victim Or The Crime
07 Bird Song
08 The Promised Land

Disc 2 - Set 2
01 Iko Iko
02 Looks Like Rain
03 Terrapin Station >
04 Drums >
05 Space >
06 Crazy Fingers >
07 I Need A Miracle >

Disc 3 - Set 2 (cont'd)
01 Stella Blue >
02 Throwing Stones >
03 Turn On Your Lovelight
04 crowd
encore
05 Black Muddy River
06 And We Bid You Good Night (1)

(1) And We Bid You Good Night was a second encore

MD5 checksum:

4968f8f52a30ba30cfd499c561fbea08 *gd89-08-18d1t01.shn
2e3e7162ecf200ce58929db9bb33f3ab *gd89-08-18d1t02.shn
540937885c5a0ba4044729379bc2c1cd *gd89-08-18d1t03.shn
bc747216f17f39498cc5d6f6719da6c6 *gd89-08-18d1t04.shn
babc58dd018619ca3033f61bae9fe716 *gd89-08-18d1t05.shn
91434ad3a21642a55d89825ad8c7c8a2 *gd89-08-18d1t06.shn
a8bb2a6d3d98d63fd09aeb96357d55ea *gd89-08-18d1t07.shn
c287ca32bdbc6b86f7b8f0cd8f5f2032 *gd89-08-18d1t08.shn
6f887589e565ea0e43232a572717834d *gd89-08-18d2t07.shn
654564dec458134a098d793ff1bb9057 *gd89-08-18d2t01.shn
c8881c712eb8a3256aeeb506d0071989 *gd89-08-18d2t02.shn
a1dcbf422da05bae9b3e2e27dd66477f *gd89-08-18d2t03.shn
a85c778630b155aa5d26ac23ac527155 *gd89-08-18d2t04.shn
7cf7a1f1ed1af9419306e114df25049a *gd89-08-18d2t05.shn
8389dd573b7d1fecb37874eb3b82bd67 *gd89-08-18d2t06.shn
13a0dc5d92e379c0051ccffeca55a305 *gd89-08-18d3t01.shn
7d8ba654cbd36e419b835a9f1c8547f1 *gd89-08-18d3t02.shn
0c58d24ea2e73d93b26198170c237b34 *gd89-08-18d3t03.shn
3d29dffa962cef20a702051a18a487b5 *gd89-08-18d3t04.shn
d74dcedc458f14c5c642c763d031807b *gd89-08-18d3t05.shn
0203932f13f7c0379f6190829f6562ab *gd89-08-18d3t06.shn

shntool output:

    length     expanded size   cdr  WAVE problems filename
     9:21.07       98976908    ---   --   ---xx   gd89-08-18d1t01.shn
    10:07.07      107091308    ---   --   ---xx   gd89-08-18d1t02.shn
    11:41.23      123710540    ---   --   ---xx   gd89-08-18d1t03.shn
     7:09.38       75765020    ---   --   ---xx   gd89-08-18d1t04.shn
     6:44.25       71324444    ---   --   ---xx   gd89-08-18d1t05.shn
     6:07.23       64792940    ---   --   ---xx   gd89-08-18d1t06.shn
    11:50.04      125253452    ---   --   ---xx   gd89-08-18d1t07.shn
     4:38.27       49102748    ---   --   ---xx   gd89-08-18d1t08.shn
     7:29.19       79248332    ---   --   ---xx   gd89-08-18d2t01.shn
    10:18.06      109029356    ---   --   ---xx   gd89-08-18d2t02.shn
    12:30.22      132351788    ---   --   ---xx   gd89-08-18d2t03.shn
    12:32.43      132753980    ---   --   ---xx   gd89-08-18d2t04.shn
     8:59.14       95112572    ---   --   ---xx   gd89-08-18d2t05.shn
     9:06.20       96361484    ---   --   ---xx   gd89-08-18d2t06.shn
     4:41.02       49573148    ---   --   ---xx   gd89-08-18d2t07.shn
     8:53.23       94075340    ---   --   ---xx   gd89-08-18d3t01.shn
     8:45.00       92610044    ---   --   ---xx   gd89-08-18d3t02.shn
     6:35.28       69743900    ---   --   ---xx   gd89-08-18d3t03.shn
     3:32.09       37418012    ---   --   ---xx   gd89-08-18d3t04.shn
     6:58.44       73838732    ---   --   ---xx   gd89-08-18d3t05.shn
     2:49.11       29837516    ---   --   ---xx   gd89-08-18d3t06.shn
   170:49.20     1807971564 B                     (totals for 21 files, 0.5482 overall compression ratio)
Show Checksums
shn-md5
4968f8f52a30ba30cfd499c561fbea08 *gd89-08-18d1t01.shn
2e3e7162ecf200ce58929db9bb33f3ab *gd89-08-18d1t02.shn
540937885c5a0ba4044729379bc2c1cd *gd89-08-18d1t03.shn
bc747216f17f39498cc5d6f6719da6c6 *gd89-08-18d1t04.shn
babc58dd018619ca3033f61bae9fe716 *gd89-08-18d1t05.shn
91434ad3a21642a55d89825ad8c7c8a2 *gd89-08-18d1t06.shn
a8bb2a6d3d98d63fd09aeb96357d55ea *gd89-08-18d1t07.shn
c287ca32bdbc6b86f7b8f0cd8f5f2032 *gd89-08-18d1t08.shn
6f887589e565ea0e43232a572717834d *gd89-08-18d2t07.shn
654564dec458134a098d793ff1bb9057 *gd89-08-18d2t01.shn
c8881c712eb8a3256aeeb506d0071989 *gd89-08-18d2t02.shn
a1dcbf422da05bae9b3e2e27dd66477f *gd89-08-18d2t03.shn
a85c778630b155aa5d26ac23ac527155 *gd89-08-18d2t04.shn
7cf7a1f1ed1af9419306e114df25049a *gd89-08-18d2t05.shn
8389dd573b7d1fecb37874eb3b82bd67 *gd89-08-18d2t06.shn
13a0dc5d92e379c0051ccffeca55a305 *gd89-08-18d3t01.shn
7d8ba654cbd36e419b835a9f1c8547f1 *gd89-08-18d3t02.shn
0c58d24ea2e73d93b26198170c237b34 *gd89-08-18d3t03.shn
3d29dffa962cef20a702051a18a487b5 *gd89-08-18d3t04.shn
d74dcedc458f14c5c642c763d031807b *gd89-08-18d3t05.shn
0203932f13f7c0379f6190829f6562ab *gd89-08-18d3t06.shn
st5
61ac841654b057385a9cfaed018412c3 [shntool] gd89-08-18d1t01.shn
d5c43af74a6293d01959d5ba4e989b2c [shntool] gd89-08-18d1t02.shn
a72fe05d1a319e7967c6655bee966ff5 [shntool] gd89-08-18d1t03.shn
8db6e1902a7009db9e55f1a0cf0cf2a7 [shntool] gd89-08-18d1t04.shn
2377375d33f3a07e3d8368e0e51cab24 [shntool] gd89-08-18d1t05.shn
fc267d1961e33f86926b09f6a44ad8be [shntool] gd89-08-18d1t06.shn
0832370cfeaf6cb166e3aabcb77e7ba3 [shntool] gd89-08-18d1t07.shn
8895b1c3cc84f27d57476f9a5730469e [shntool] gd89-08-18d1t08.shn
9a8a956fcd37a4a1953d2630e4fd3233 [shntool] gd89-08-18d2t01.shn
6ec06f0cfbfd3ac285636d4c25c099d3 [shntool] gd89-08-18d2t02.shn
f2627ed14f0204d92da7f01b1369f90e [shntool] gd89-08-18d2t03.shn
719cb542676cf7899d76ffb128178d9e [shntool] gd89-08-18d2t04.shn
67310a4e59e4a8b81b2bdb8428f08228 [shntool] gd89-08-18d2t05.shn
9f35563a8608e0d1e452fbf6a46c39e8 [shntool] gd89-08-18d2t06.shn
46184ac16d8407cc572278e459b10f18 [shntool] gd89-08-18d2t07.shn
8b87f6e663d693660bdbea6572774b67 [shntool] gd89-08-18d3t01.shn
ff108a1be0974ce2e342656434200bf4 [shntool] gd89-08-18d3t02.shn
a3745ace454a7f896928129d8ba38e1b [shntool] gd89-08-18d3t03.shn
410eba7a61025f877b9cf169494ddc6a [shntool] gd89-08-18d3t04.shn
2ce4e63a4cd2a8577fb1f62aec2bb11f [shntool] gd89-08-18d3t05.shn
a9719d5f808d04cae4dfc32c853dd357 [shntool] gd89-08-18d3t06.shn

Comments
Add Comment
Other Sources (comments)
Healy Matrix Digital SBD >... (4) Jay Ashley (Bertha)... (1) flac16; Recording... (0) flac16; AUD:... (0) flac16; LINEAGE: 2x... (0) flac16; RECORDED BY:... (0) flac16; Source: 2... (0) flac16; Source info:... (0) flac24 96khz Akg... (0) flac16 44.1khz ... (0) flac24; Set 2... (0) flac24; Set 2... (0) flac16; Recording... (0) flac16; Set 2... (0)
Date User Comment