Browse Collections Artists Sources   Search Dates

Add Show    List Management    Help


Grateful Dead 10/30/90
Wembley Arena, London, England
Comments Add Comment    Source Collectors    Add to Collection    Add to Want List    History
Source # 34645 Other Sources
Entered by Matt Vernon
Checksums ffp , orig-flac-replaygain-md5 , flac-md5
Disc Counts 2 / 3
Media Size
Date Circulated
Date Added
05/10/2006
05/10/2006
Source Summary flac16; Seamless fix of shn id 6678 - dsbd>dat>cd>shn>WAV>FLAC. Note Added 11/9/08: Reflac version w/o replay gain added. See info file for details 
  Archive
Source Information - Download Text | Download Zip
Grateful Dead
Wembley Arena
London,England
10/30/90
------------------------------------------------------------------------
Fix of shnid 6678

I made the transition between CDs 2 and 3 seamless, fixed the
resulting SBEs with shntool and converted the nonseekable shns to
flac.  The unSHNed WAV files had noncanonical headers - since FLAC
conversion strips unnecessary header information, I didn't need to use
shntool's strip mode to render them canonical.

Many thanks to whomever did the DAT>CD transfer and provided the
overlap that made this fix possible.

Bill Tetzeli ([email protected])
8:52 PM 4/8/2006
------------------------------------------------------------------------
When this source was first circulated, the flac files contained
REPLAYGAIN tags. The wav files compressed inside the flac files are
fine, but if you listen to the flac files themselves using a player
like WinAMP, these tags cause all the tracks to be played at the same
volume. That's not good for concerts where some tracks are supposed to
be louder than others.

There's a new version of this source available. It has exactly the
same wav files; it's just the flac wrapper that's different, the
wrapper doesn't have REPLAYGAIN set anymore. The new version has the
same ffp file (since the wav's are the same), but a new md5 file
(since the flac files are different). The md5 file for the old source
is called "orig-flac-replaygain-md5"; the md5 file for the good new
source is called "flac-md5". If you have a source for this that
matches the ffp, you can create the new source by unflac'ing the old
source and then recompressing at flac level 8 using the flac command
line tool or the flac frontend.

From now on, only the new version of the source should be circulated.

SteveSw - Nov, 2008
------------------------------------------------------------------------

dsbd>dat>cd>shn>WAV>FLAC


CD 1
Jack Straw
Bertha  
Wang Dang Doodle
Brown Eyed Women  
Queen Jane Approximately
Row Jimmy  
Let It Grow  
Jam
Valley Road


CD 2 (set ii)
Picasso Moon  
Foolish Heart  
Looks Like Rain
Terrapin Station


CD 3 (set ii cont.)
Drumz > Space  
The Wheel >
I Need A Miracle >
Black Peter  >
Turn On Your Lovelight
encore:
The Weight

Piped in By Steve Barbella
October 2001




==========

    length     expanded size    cdr  WAVE problems  fmt   ratio  filename
     5:51.00       61916444 B   ---   --   ---xx   flac  0.4546  gd90-10-30d1t01.flac
     6:55.10       73229564 B   ---   --   ---xx   flac  0.4986  gd90-10-30d1t02.flac
     7:05.32       75045308 B   ---   --   ---xx   flac  0.4214  gd90-10-30d1t03.flac
     5:24.11       57179516 B   ---   --   ---xx   flac  0.4666  gd90-10-30d1t04.flac
     8:02.31       85097756 B   ---   --   ---xx   flac  0.4479  gd90-10-30d1t05.flac
     9:56.17      105174428 B   ---   --   ---xx   flac  0.4636  gd90-10-30d1t06.flac
    12:31.13      132507020 B   ---   --   ---xx   flac  0.5106  gd90-10-30d1t07.flac
     5:00.18       52962380 B   ---   --   ---xx   flac  0.3793  gd90-10-30d1t08.flac
     4:53.53       51809900 B   ---   --   ---xx   flac  0.5872  gd90-10-30d1t09.flac
     7:08.26       75560396 B   ---   --   ---xx   flac  0.5250  gd90-10-30d2t01.flac
     8:36.29       91090652 B   ---   --   ---xx   flac  0.5063  gd90-10-30d2t02.flac
     8:40.51       91847996 B   ---   --   ---xx   flac  0.4345  gd90-10-30d2t03.flac
    13:59.68      148159580 B   ---   --   ---xx   flac  0.4700  gd90-10-30d2t04.flac
    20:33.38      217590620 B   ---   --   ---xx   flac  0.3528  gd90-10-30d3t01.flac
     4:07.04       43580252 B   ---   --   ---xx   flac  0.4880  gd90-10-30d3t02.flac
     4:27.41       47195276 B   ---   --   ---xx   flac  0.5461  gd90-10-30d3t03.flac
     9:19.55       98737004 B   ---   --   ---xx   flac  0.4512  gd90-10-30d3t04.flac
     9:21.54       99087452 B   ---   --   ---xx   flac  0.4802  gd90-10-30d3t05.flac
     5:43.56       60636956 B   ---   --   ---xx   flac  0.4801  gd90-10-30d3t06.flac
   157:38.07     1668408500 B                            0.4606  (19 files)
Show Checksums
ffp
gd90-10-30d1t01.flac:008a23cf5e6454222dd5b42fc2f5a3e5
gd90-10-30d1t02.flac:f2bdb2984e33ea769f63526dd3fbe49a
gd90-10-30d1t03.flac:1b3c4430c57f3eea6962353615d139cc
gd90-10-30d1t04.flac:ee365fd6cec9dbd49c6115ae1ac18e23
gd90-10-30d1t05.flac:91424ddb58914b01dcea073140105744
gd90-10-30d1t06.flac:c11ed579748d6663849f55f0c963d4db
gd90-10-30d1t07.flac:731af89fcf8ee48e5c74ab0734b08d8a
gd90-10-30d1t08.flac:655fbeb36967e470e96852b6e66643f9
gd90-10-30d1t09.flac:49c628b72c95adc88edd3dcb32c59369
gd90-10-30d2t01.flac:1641ed53518a66dcc940022a949864e9
gd90-10-30d2t02.flac:a861672f17539c5a44265cd6737f3599
gd90-10-30d2t03.flac:badc4d8dd2217d6fdbac58030791d687
gd90-10-30d2t04.flac:1d618666781f7e10cf64b9f393e039d5
gd90-10-30d3t01.flac:f5cba5a6a7d3572545d645414e053c37
gd90-10-30d3t02.flac:6031dc608c228f0b2cd0efc02656544d
gd90-10-30d3t03.flac:d4c0f41c4eb7247af54d94364928ec3b
gd90-10-30d3t04.flac:62b9349eb648c599e757d6976ae1edb3
gd90-10-30d3t05.flac:960d4a15ff81869b1723b8283a5f8e14
gd90-10-30d3t06.flac:7fcf8979d21fea12603efb2c05b07c55
orig-flac-replaygain-md5
ca6ab59a80048356d72c56a66a82c507 *gd90-10-30d1t01.flac
dc748b80b31447611f05bafb7b2a19c2 *gd90-10-30d1t02.flac
98f3add21367c90e799ec91a8c78c58f *gd90-10-30d1t03.flac
96917eff719b1d18abd370f57cb4653e *gd90-10-30d1t04.flac
220d81e50416cde86ee305d00f7650df *gd90-10-30d1t05.flac
b6f67bfd850bc0b30873beb6239fd0fd *gd90-10-30d1t06.flac
28693242c4eb15f84d67699b3ca614bb *gd90-10-30d1t07.flac
98a643189241f385f232a0fc909c5b41 *gd90-10-30d1t08.flac
e7137cc7e72a672dc0c7c6200615b007 *gd90-10-30d1t09.flac
8a4ae6135fb72e0b6c51f34354470063 *gd90-10-30d2t01.flac
6c389e63cd1399d2be12f21a571fde20 *gd90-10-30d2t02.flac
46f15b7e9befe09cca8dfede3d94a3fd *gd90-10-30d2t03.flac
4654ac21731832309ad42aa9cdfbca1a *gd90-10-30d2t04.flac
b031f7505c54a6ee193f2b3b82eb1c04 *gd90-10-30d3t01.flac
43f7b879a1c982dfe99823ea86c0382d *gd90-10-30d3t02.flac
cd2a5ac1d30f3e7f8897960f06e6c9c7 *gd90-10-30d3t03.flac
45cb086caffa2430a8f86ba09ef27f99 *gd90-10-30d3t04.flac
147a0097742799eb21bf0c0cfa80fa20 *gd90-10-30d3t05.flac
70792cf276f25e0bd9339c953ebb2272 *gd90-10-30d3t06.flac
flac-md5
aac5cad67c7668a25a5c938bd081dbc9 *gd90-10-30d1t01.flac
9768e93da5ea6f2d1ab6284a172a22be *gd90-10-30d1t02.flac
018050bc4c5a7905ca20762e91902fca *gd90-10-30d1t03.flac
a1c9bac7d461a2fd78c4e8d0d107154a *gd90-10-30d1t04.flac
8307608aea472d5e5a8b521bc93a8b9f *gd90-10-30d1t05.flac
b73eb7f797a032311c045e7f56a832de *gd90-10-30d1t06.flac
3c24748a0daf377a8b9fe4d991566a98 *gd90-10-30d1t07.flac
fee747cbd6b00ddfd741c1276e470c4f *gd90-10-30d1t08.flac
4976ac1e0ce7cf88a0e50e04efc963d7 *gd90-10-30d1t09.flac
a3f3aca45fffed7f8d04393c0cafd06b *gd90-10-30d2t01.flac
26d4b30ff96dd693cbeeb4cfa40284d1 *gd90-10-30d2t02.flac
fb65443794f06b813a492a38f2966b60 *gd90-10-30d2t03.flac
1b71b20013f346c1142d809d77cb5e19 *gd90-10-30d2t04.flac
8c6ff71b23156e28eb5d40926557474c *gd90-10-30d3t01.flac
7c979ea08f816563587d5fa5c0a1a28e *gd90-10-30d3t02.flac
9a708b2a6396ad099cc21eb3d66297d8 *gd90-10-30d3t03.flac
22d9d480165f273afbe80a19374e329a *gd90-10-30d3t04.flac
3015c8d0d5155f2d75c3940fda5ec763 *gd90-10-30d3t05.flac
84d771e3c3d1613dcb6e4e55f25f057d *gd90-10-30d3t06.flac

Comments
Add Comment
Other Sources (comments)
dsbd> dat> cd> shn; via... (0) SBD> DAT> CDR; EAC'ed /... (0) flac16; AUD Source:... (0) flac16; Set 2 only... (0) flac16; 2 Source... (0) flac16; SBD MTX >... (0) flac16/48kHz;... (0) flac24; Recording... (0) flac16; Recording... (0)
Date User Comment
11/09/2006 btet This was inadvertently FLAC encoded with replaygain. If you're playing the FLACs in Winamp you should reFLAC the files without the replaygain option. If you're burning extracted .wavs to CD, these are unaffected and no reFLACing is necessary. I apologize for the error.